1 сезон

3 сезон

iTunes

1

iTunes

DUB Netflix

iTunes

13

1 сезон

RePack

30

Deluxe

pack

Легкие деньги

ВАЖНО

ИГРА 18+

pack

RePack

MK11

RePack

jed

RePack

fifa19

RePack

RDR2

RePack

NEED FOR SPEED™ PAYBACK

4 сезон

9 сезон

Бесстыжие 9 сезон

Все сериалы

все сериалы на PB.wtf

RePack

FAR CRY 5

Anonymous, доброе утро, мы не успеваем до 1 числа собрать деньги на оплату серверов, помогите нам пожалуйста в это трудное время. В качестве благодарности мы отключим Вам всю рекламу на сайте (укажите свой ник в строку Ваше имя)!

×
  
Magnet ссылка

Дьявольская миля / Devil's Mile (Джозеф О’Брайэн / Joseph O'Brien) [2014, США, Канада, ужасы, боевик, криминал, WEBRip) VO [Васька Куролесов] piratbit.pw

Дьявольская миля через торрент piratbit.pw

Размер: 971 MB | Добавлен: 6 лет 7 мес. назад | Торрент скачан:203 раза
Скачать  

19-11-2014 04:12 Дьявольская миля Скачать торрент  

Дьявольская миля / Devil's Mile
«Трое Отчаянных Убийц. Два Испуганных Пленника. Один Неверный Поворот. Нет Шансов В Аду»


  • Год выпуска: 2014
  • Страна: США, Канада
  • Жанр: ужасы, боевик, криминал
  • Продолжительность: 01:27:34
  • Перевод: Любительский (одноголосый)[Васька Куролесов]

  • Режиссер: Джозеф О’Брайэн / Joseph O'Brien
  • В ролях:

    Дэвид Хэйтер (Toby McTeague), Мария дель Мар (Cally), Casey Dumas Hudecki (Jacinta), Эдриэнн Кресс (Cally's Girlfriend), Фрэнк Мур (Mr. Arkadi), Саманта Ван (Suki Tsuburaya), Аманда Джой (Kanako Kobayashi), Шара Ким (Demon), Craig Porritt (The Caretaker)

  • Описание:
    Жестокий гибрид дорожного триллера и мрачного мистического мира Лавкрафта. Трое жестоких убийц, выполняя заказ странного и могущественного заказчика похищают двух девочек. Желая сократить путь, чтобы доставить заложниц вовремя, они сворачивают на заброшенное шоссе. И тут сюжет начинает развиваться жёстко и стремительно ведь неслучайно это шоссе называют Дьявольской милей. И никому еще не удавалось съехать с этой дороги живым. Трое отчаявшихся убийц. Двое напуганных заложниц в багажнике... Один поворот не туда.
  • Рейтинг:



  • Качество: WEBRip
  • Формат: :AVI
  • Видео кодек: XviD
  • Аудио кодек: AC3
  • Видео: 640x270 (2.35:1), 1148 kbps, 29,970 fps, 0,222 bpp
  • Аудио №1: Русский 2.0 / 48 kHz / 192 kbps / 16 bit
  • Аудио №2: Английский 2.0 / 48 kHz / 192 kbps / 16 bit
  • Релиз от: GEKADOL



    Код:

    Общее
    Полное имя                               : D:\Фильмы\Devils.Mile.2014.WEBRip.CINEMANIA.avi
    Формат                                   : AVI
    Формат/Информация                        : Audio Video Interleave
    Размер файла                             : 971 Мбайт
    Продолжительность                        : 1 ч. 27 м.
    Общий поток                              : 1550 Кбит/сек
    Программа кодирования                    : VirtualDubMod 1.5.10.2 (build 2542/release)
    Библиотека кодирования                   : VirtualDubMod build 2542/release

    Видео
    Идентификатор                            : 0
    Формат                                   : MPEG-4 Visual
    Профиль формата                          : Advanced Simple@L5
    Параметр BVOP формата                    : 2
    Параметр QPel формата                    : Нет
    Параметр GMC формата                     : Без точки перехода
    Параметр матрицы формата                 : Default (H.263)
    Режим смешивания                         : Сжатый битовый поток
    Идентификатор кодека                     : XVID
    Идентификатор кодека/Подсказка           : XviD
    Продолжительность                        : 1 ч. 27 м.
    Битрейт                                  : 1148 Кбит/сек
    Ширина                                   : 640 пикселей
    Высота                                   : 270 пикселей
    Соотношение сторон                       : 2,40:1
    Частота кадров                           : 29,970 кадров/сек
    Цветовое пространство                    : YUV
    Субдискретизация насыщенности            : 4:2:0
    Битовая глубина                          : 8 бит
    Тип развёртки                            : Прогрессивная
    Метод сжатия                             : С потерями
    Бит/(Пиксели*Кадры)                      : 0.222
    Размер потока                            : 719 Мбайт (74%)
    Библиотека кодирования                   : XviD 64

    Аудио #1
    Идентификатор                            : 1
    Формат                                   : AC-3
    Формат/Информация                        : Audio Coding 3
    Расширение режима                        : CM (complete main)
    Параметр Endianness формата              : Big
    Идентификатор кодека                     : 2000
    Продолжительность                        : 1 ч. 27 м.
    Вид битрейта                             : Постоянный
    Битрейт                                  : 192 Кбит/сек
    Каналы                                   : 2 канала
    Расположение каналов                     : Front: L R
    Частота                                  : 48,0 КГц
    Битовая глубина                          : 16 бит
    Метод сжатия                             : С потерями
    Размер потока                            : 120 Мбайт (12%)
    Выравнивание                             : Разделение по промежуткам
    Продолжительность промежутка             : 33  мс. (1,00 видеокадр)
    Время предзагрузки промежутка            : 500  мс.

    Аудио #2
    Идентификатор                            : 2
    Формат                                   : AC-3
    Формат/Информация                        : Audio Coding 3
    Расширение режима                        : CM (complete main)
    Параметр Endianness формата              : Big
    Идентификатор кодека                     : 2000
    Продолжительность                        : 1 ч. 27 м.
    Вид битрейта                             : Постоянный
    Битрейт                                  : 192 Кбит/сек
    Каналы                                   : 2 канала
    Расположение каналов                     : Front: L R
    Частота                                  : 48,0 КГц
    Битовая глубина                          : 16 бит
    Метод сжатия                             : С потерями
    Размер потока                            : 120 Мбайт (12%)
    Выравнивание                             : Разделение по промежуткам
    Продолжительность промежутка             : 33  мс. (1,00 видеокадр)
    Время предзагрузки промежутка            : 500  мс.


    Скриншоты:



    piratbit.pw



  • Скачать Дьявольская миля через торрент http://i68.fastpic.ru/big/2014/1119/62/8de28ce08ca3c85c4c096773d8ac3062.jpg Скачать фильм Дьявольская миля через торрент бесплантно в хорошем качестве Описание: Жестокий гибрид дорожного триллера и мрачного мистического мира Лавкрафта. Трое жестоких убийц, выполняя заказ странного и ... 9.3 10 6
    Торрент: Зарегистрирован [2014-11-19 04:12] · скачан: 203 раз
    Статус: T временная
    Размер: 971 MB
    Как cкачать? Как скачать Дьявольская миля через торрент | UTorrent

    28-11-2019 20:33  

    Отключить всю рекламу на сайте

      Дорогой пользователь! Огромная просьба, поблагодарите релизера, оцените раздачу и оставьте свои комментарий, если Вы скачали Дьявольская миля через торрент бесплатно! Внесите свою лепту в развитие PiratBit!
      Комментировать посты могут только пользователи прошедшие не сложную регистрацию
      Показать сообщения:    

      Дьявольская миля через торрент
      Скачать бесплатно Дьявольская миля
      Дьявольская миля скачать торрент
      Дьявольская миля смотреть онлайн
      Cкачать фильм Дьявольская миля бесплатно
      Дьявольская миля скачать торрент в хорошем качестве
      Дьявольская миля смотреть онлайн бесплатно в хорошем качестве


      Вы не можете начинать темы
      Вы не можете отвечать на сообщения
      Вы не можете редактировать свои сообщения
      Вы не можете удалять свои сообщения
      Вы не можете голосовать в опросах
      Вы не можете прикреплять файлы к сообщениям
      Вы можете скачивать файлы