1 сезон

1 сезон

iTunes

1

КиноПоиск HD

Кинопоиск HD

iTunes

13

1 сезон

RePack

30

Новинка

ВАЖНО

ИГРА 18+

pack

RePack

MK11
pack

Легкие деньги

RePack

jed

RePack

fifa19

RePack

RDR2

RePack

NEED FOR SPEED™ PAYBACK

4 сезон

9 сезон

Бесстыжие 9 сезон

Все сериалы

все сериалы на PB.wtf

RePack

FAR CRY 5
  
Magnet ссылка

Звёздная карта / Maps to the stars (Дэвид Кроненберг) [2014, драма, BDRip 720p] AVO piratbit.pw

Звёздная карта через торрент piratbit.pw

Качают: 1 [ 0 KB/s ]
Размер: 3.64 GB | Добавлен: 6 лет 5 мес. назад | Торрент скачан:55 раз
Скачать  

04-11-2014 13:19 Звёздная карта Скачать торрент  

Звёздная карта / Maps to the stars

Год выпуска: 2014
Страна: Канада, США, Германия, Франция
Жанр: драма
Продолжительность: 01:47:17
Перевод: авторский
Субтитры: английские

Режиссёр: Дэвид Кроненберг

В ролях: Джулианна Мур, Миа Васиковска, Джон Кьюсак, Эван Бёрд, Оливия Уильямс, Роберт Паттинсон, Кьяра Гласко, Сара Гадон, Доун Гринхалг, Джонатан Уоттон

Описание: Место действия — два голливудских дома. В одном живёт стареющая актриса, которая надеется сыграть роль собственной давно погибшей матери — легенды черно-белого кино. Другой особняк — резиденция сверхуспешного психотерапевта, его жены и их сына — 13-летнего миллионера, наркомана и звезды. В оба дома проникает девушка из Флориды, которая подружилась в твиттере с Кэрри Фишер и надеется с её помощью покорить Лос-Анджелес...



Качество: BDRip 720p Сравнение с исходником
Формат: MKV
Видео кодек: H.264
Аудио кодек: AC3
Видео: 3677 Кбит/с, 1280x692, 25 кадра/с, 0.166 bpp
Аудио 1: русский, AC3, 448 kbps, 6 ch, 48 kHz [авторский, Сергей Визгунов]
Аудио 2: английский, AC3, 640 kbps, 6 ch, 48 kHz [оригинал]

Имеются неименованные главы/чаптеры.

Автор рипа msltel
Каннский кинофестиваль, 2014 год
Победитель (1):
Лучшая женская роль (Джулианна Мур)

Номинации (1):
Золотая пальмовая ветвь
frame I:1351 Avg QP:13.80 size:105291
frame P:30432 Avg QP:14.72 size: 43102
frame B:129149 Avg QP:16.49 size: 12238

Общее
Уникальный идентификатор : 200211867592852333258096238806389253567 (0x969F6731AF4143728C03B5E9995865BF)
Полное имя : D:\Video\Zvezdnaja karta.2014.BDRip.720p.mkv
Формат : Matroska
Версия формата : Version 4 / Version 2
Размер файла : 3,64 Гбайт
Продолжительность : 1 ч. 47 м.
Общий поток : 4861 Кбит/сек
Дата кодирования : UTC 2014-11-04 12:04:06
Программа кодирования : mkvmerge v7.3.0 ('Nouages') 64bit built on Oct 22 2014 18:53:34
Библиотека кодирования : libebml v1.3.0 + libmatroska v1.4.1
DURATION : 01:41:08.308000000
NUMBER_OF_FRAMES : 1806
NUMBER_OF_BYTES : 52104
_STATISTICS_WRITING_APP : mkvmerge v7.3.0 ('Nouages') 64bit built on Oct 22 2014 18:53:34
_STATISTICS_WRITING_DATE_UTC : 2014-11-04 12:04:06
_STATISTICS_TAGS : BPS DURATION NUMBER_OF_FRAMES NUMBER_OF_BYTES

Видео
Идентификатор : 1
Формат : AVC
Формат/Информация : Advanced Video Codec
Профиль формата : High@L4.1
Параметр CABAC формата : Да
Параметр ReFrames формата : 9 кадров
Идентификатор кодека : V_MPEG4/ISO/AVC
Продолжительность : 1 ч. 47 м.
Битрейт : 3677 Кбит/сек
Ширина : 1280 пикселей
Высота : 692 пикселя
Соотношение сторон : 1,85:1
Режим частоты кадров : Постоянный
Частота кадров : 25,000 кадров/сек
Цветовое пространство : YUV
Субдискретизация насыщенности : 4:2:0
Битовая глубина : 8 бит
Тип развёртки : Прогрессивная
Бит/(Пиксели*Кадры) : 0.166
Размер потока : 2,76 Гбайт (76%)
Заголовок : BDRip -- STarankov
Библиотека кодирования : x264 core 142 r2431 ac76440
Настройки программы : cabac=1 / ref=9 / deblock=1:-1:-1 / analyse=0x3:0x113 / me=umh / subme=10 / psy=1 / psy_rd=1.00:0.15 / mixed_ref=1 / me_range=32 / chroma_me=1 / trellis=2 / 8x8dct=1 / cqm=0 / deadzone=21,11 / fast_pskip=1 / chroma_qp_offset=-3 / threads=6 / lookahead_threads=1 / sliced_threads=0 / nr=0 / decimate=1 / interlaced=0 / bluray_compat=0 / constrained_intra=0 / bframes=8 / b_pyramid=2 / b_adapt=2 / b_bias=0 / direct=3 / weightb=1 / open_gop=0 / weightp=2 / keyint=240 / keyint_min=24 / scenecut=40 / intra_refresh=0 / rc_lookahead=40 / rc=crf / mbtree=0 / crf=17.0 / qcomp=0.60 / qpmin=0 / qpmax=69 / qpstep=4 / vbv_maxrate=50000 / vbv_bufsize=62500 / crf_max=0.0 / nal_hrd=none / filler=0 / ip_ratio=1.40 / pb_ratio=1.30 / aq=1:1.00
Язык : English
Default : Да
Forced : Нет
DURATION : 01:47:17.280000000
NUMBER_OF_FRAMES : 160932
NUMBER_OF_BYTES : 3034532280
_STATISTICS_WRITING_APP : mkvmerge v7.3.0 ('Nouages') 64bit built on Oct 22 2014 18:53:34
_STATISTICS_WRITING_DATE_UTC : 2014-11-04 12:04:06
_STATISTICS_TAGS : BPS DURATION NUMBER_OF_FRAMES NUMBER_OF_BYTES

Аудио #1
Идентификатор : 2
Формат : AC-3
Формат/Информация : Audio Coding 3
Расширение режима : CM (complete main)
Параметр Endianness формата : Big
Идентификатор кодека : A_AC3
Продолжительность : 1 ч. 47 м.
Вид битрейта : Постоянный
Битрейт : 448 Кбит/сек
Каналы : 6 каналов
Расположение каналов : Front: L C R, Side: L R, LFE
Частота : 48,0 КГц
Битовая глубина : 16 бит
Метод сжатия : С потерями
Размер потока : 344 Мбайт (9%)
Заголовок : AVO (Сергей Визгунов)
Язык : Russian
Default : Да
Forced : Нет

Аудио #2
Идентификатор : 3
Формат : AC-3
Формат/Информация : Audio Coding 3
Расширение режима : CM (complete main)
Параметр Endianness формата : Big
Идентификатор кодека : A_AC3
Продолжительность : 1 ч. 47 м.
Вид битрейта : Постоянный
Битрейт : 640 Кбит/сек
Каналы : 6 каналов
Расположение каналов : Front: L C R, Side: L R, LFE
Частота : 48,0 КГц
Битовая глубина : 16 бит
Метод сжатия : С потерями
Размер потока : 491 Мбайт (13%)
Заголовок : Original
Язык : English
Default : Нет
Forced : Нет

Текст
Идентификатор : 4
Формат : UTF-8
Идентификатор кодека : S_TEXT/UTF8
Идентификатор кодека/Информация : UTF-8 Plain Text
Заголовок : английский
Язык : English
Default : Нет
Forced : Нет

Меню
00:00:00.000 : :Chapter 01
00:08:32.319 : :Chapter 02
00:20:37.799 : :Chapter 03
00:29:15.079 : :Chapter 04
00:40:17.518 : :Chapter 05
00:50:31.360 : :Chapter 06
00:59:57.000 : :Chapter 07
01:08:47.600 : :Chapter 08
01:19:54.640 : :Chapter 09
01:27:56.640 : :Chapter 10
01:35:10.680 : :Chapter 11
01:41:22.319 : :Chapter 12
01:47:17.238 : :Chapter 13
piratbit.pw



Скачать Звёздная карта через торрент http://i64.fastpic.ru/big/2014/1104/92/e2609a8a3a0e7152022bd0f450bfd592.jpg Скачать фильм Звёздная карта через торрент бесплантно в хорошем качестве Описание: Место действия — два голливудских дома. В одном живёт стареющая актриса, которая надеется сыграть роль собственной давно погибшей ... 10 10 5
Торрент: Зарегистрирован [2014-11-04 13:19] · скачан: 55 раз
Статус: √ проверено
Размер: 3.64 GB
Как cкачать? Как скачать Звёздная карта через торрент | UTorrent

% Раздел Тема Автор DL S | L
Фильмы с авторской озвучкой [ 10.71 GB ] Звёздная карта / Maps to the stars [2014 BDRip 1080p] AVO msltel Скачать
1 | 0

28-11-2019 20:33  

Отключить всю рекламу на сайте

    Дорогой пользователь! Огромная просьба, поблагодарите релизера, оцените раздачу и оставьте свои комментарий, если Вы скачали Звёздная карта через торрент бесплатно! Внесите свою лепту в развитие PiratBit!
    Комментировать посты могут только пользователи прошедшие не сложную регистрацию
    Показать сообщения:    

    Звёздная карта через торрент
    Скачать бесплатно Звёздная карта
    Звёздная карта скачать торрент
    Звёздная карта смотреть онлайн
    Cкачать фильм Звёздная карта бесплатно
    Звёздная карта скачать торрент в хорошем качестве
    Звёздная карта смотреть онлайн бесплатно в хорошем качестве


    Вы не можете начинать темы
    Вы не можете отвечать на сообщения
    Вы не можете редактировать свои сообщения
    Вы не можете удалять свои сообщения
    Вы не можете голосовать в опросах
    Вы не можете прикреплять файлы к сообщениям
    Вы можете скачивать файлы