1 сезон

1 сезон

iTunes

1

КиноПоиск HD

Кинопоиск HD

iTunes

13

1 сезон

RePack

30

Ultimate

ВАЖНО

ИГРА 18+

pack

RePack

MK11
pack

Легкие деньги

RePack

jed

RePack

fifa19

RePack

RDR2

RePack

NEED FOR SPEED™ PAYBACK

4 сезон

9 сезон

Бесстыжие 9 сезон

Все сериалы

все сериалы на PB.wtf

RePack

FAR CRY 5
  
Magnet ссылка

Ровер / The Rover (Дэвид Мишо) [2014 г., Драма, криминал, WEB-DLRip, Авторский] piratbit.pw

Ровер через торрент piratbit.pw

Размер: 1.45 GB | Добавлен: 6 лет 7 мес. назад | Торрент скачан:408 раз
Скачать  

27-08-2014 00:20 Ровер Скачать торрент  

Ровер / The Rover

Год выпуска: 2014

Страна: Австралия, США

Жанр: Драма, криминал

Продолжительность: 01:43

Перевод: [Авторский][Алексей Матвеев (Doctor Joker)]

Субтитры: НЕТ!

Режиссер: Дэвид Мишо

Бюджет: $12 000 000
Премьера в мире: 18 мая 2014





В ролях: Гай Пирс, Чан Кьень, Роберт Паттинсон, Тек Конг Лим, Скут МакНэйри, Таванда Маниймо, Дэвид Филд, Скотт Перри, Ричард Грин, Бен Армер

Описание: Главный герой преследует по дикой австралийской природе банду, угнавшую его автомобиль, и оказывается в ловушке.

Качество: WEB-DLRip
Формат: AVI
Видео кодек: XviD
Аудио кодек: AC3
Видео: Xvid, 720x304, 1623 Кбит/сек, 23,976 кадра/сек, 0.309bpp
Аудио#1: AC3, 384 Кбит/сек, 6 каналов, 48,0 КГц,






Полное имя : D:The.Rover.2014.A1.WEBDLRip.1.45Gb_.avi
Формат : AVI
Формат/Информация : Audio Video Interleave
Размер файла : 1,45 Гбайт
Продолжительность : 1 ч. 42 м.
Общий поток : 2016 Кбит/сек
Программа кодирования : VirtualDubMod 1.5.10.3 | www.virtualdub-fr.org || (build 2550/release)
Библиотека кодирования : VirtualDubMod build 2550/release

Видео
Идентификатор : 0
Формат : MPEG-4 Visual
Профиль формата : Advanced Simple@L5
Параметр BVOP формата : 2
Параметр QPel формата : Нет
Параметр GMC формата : Без точки перехода
Параметр матрицы формата : Default (MPEG)
Идентификатор кодека : XVID
Идентификатор кодека/Подсказка : XviD
Продолжительность : 1 ч. 42 м.
Битрейт : 1623 Кбит/сек
Ширина : 720 пикселей
Высота : 304 пикселя
Соотношение сторон : 2,35:1
Частота кадров : 23,976 кадра/сек
Цветовое пространство : YUV
Субдискретизация насыщенности : 4:2:0
Битовая глубина : 8 бит
Тип развёртки : Прогрессивная
Метод сжатия : С потерями
Бит/(Пиксели*Кадры) : 0.309
Размер потока : 1,17 Гбайт (80%)
Библиотека кодирования : XviD 1.2.1 (UTC 2008-12-04)

Аудио
Идентификатор : 1
Формат : AC-3
Формат/Информация : Audio Coding 3
Расширение режима : CM (complete main)
Параметр Endianness формата : Big
Идентификатор кодека : 2000
Продолжительность : 1 ч. 42 м.
Вид битрейта : Постоянный
Битрейт : 384 Кбит/сек
Каналы : 6 каналов
Расположение каналов : Front: L C R, Side: L R, LFE
Частота : 48,0 КГц
Битовая глубина : 16 бит
Метод сжатия : С потерями
Размер потока : 283 Мбайт (19%)
Выравнивание : Разделение по промежуткам
Продолжительность промежутка : 42 мс. (1,00 видеокадр)
Время предзагрузки промежутка : 500 мс.

piratbit.pw



Скачать Ровер через торрент https://pic.kartinco.top/images/6/v456f.jpg Скачать фильм Ровер через торрент бесплантно в хорошем качестве Описание: Главный герой преследует по дикой австралийской природе банду, угнавшую его автомобиль, и оказывается в ... 8.4 10 14
Info! Золотая раздача, скачанное не засчитывается.
Торрент: Зарегистрирован [2014-08-27 00:20] · скачан: 408 раз
Статус: √ проверено
Размер: 1.45 GB
Как cкачать? Как скачать Ровер через торрент | UTorrent

% Раздел Тема Автор DL S | L
Арт-хаус и авторское кино [ 11.28 GB ] Ровер / The Rover [2014 BDRip 1080p DVO [Студия "Paradox"]+AVO [Doctor Joker] Ворон Скачать
1 | 0
Фильмы 2014 [DVDrip, WEB-DLRip, HDrip] [ 1.45 GB ] Ровер / The Rover [2014 HDRip Любительский двухголосый [Студия "Paradox"] Ворон Скачать
1 | 0
Фильмы (DVD фильмы) [ 3.84 GB ] Ровер / The Rover [2014 DVD5] R5 voovaz Скачать
1 | 0
Фильмы [HD 720p, 1080p] (Хороший звук DUB, MVO) [ 5.97 GB ] Ровер / The Rover [2014 BDRip 720p Любительский двухголосый [Студия "Paradox"]+AVO+VO Ворон Скачать
1 | 0
Фильмы [HD 720p, 1080p] (Хороший звук DUB, MVO) [ 11 GB ] Ровер / The Rover [2014 BDRip 1080p MVO ] Seedtank Скачать
1 | 0
Фильмы 2014 [DVDrip, WEB-DLRip, HDrip] [ 2.04 GB ] Ровер / The Rover [2014 HDRip многоголосый] Official sound кэп Скачать
1 | 0
Фильмы 2014 [DVDrip, WEB-DLRip, HDrip] [ 1.37 GB ] Ровер / The Rover [2014 HDRip многоголосый] Official sound кэп Скачать
1 | 0


Последний раз редактировалось: _KaisiK_ (2014-12-23 11:30), всего редактировалось 2 раз(а)

28-11-2019 20:33  

Отключить всю рекламу на сайте

27-08-2014 12:02 Ровер Скачать торрент  

Кинопоиск и IMDB оценки отличаются на много.piratbit.pw



27-08-2014 13:59 Ровер Скачать торрент  

Marcenaries писал(а):

Кинопоиск и IMDB оценки отличаются на много.

премьера (РФ) 11 сентября 2014 еще не оценили piratbit.pw



    Дорогой пользователь! Огромная просьба, поблагодарите релизера, оцените раздачу и оставьте свои комментарий, если Вы скачали Ровер через торрент бесплатно! Внесите свою лепту в развитие PiratBit!
    Комментировать посты могут только пользователи прошедшие не сложную регистрацию
    Показать сообщения:    

    Ровер через торрент
    Скачать бесплатно Ровер
    Ровер скачать торрент
    Ровер смотреть онлайн
    Cкачать фильм Ровер бесплатно
    Ровер скачать торрент в хорошем качестве
    Ровер смотреть онлайн бесплатно в хорошем качестве


    Вы не можете начинать темы
    Вы не можете отвечать на сообщения
    Вы не можете редактировать свои сообщения
    Вы не можете удалять свои сообщения
    Вы не можете голосовать в опросах
    Вы не можете прикреплять файлы к сообщениям
    Вы можете скачивать файлы