1 сезон

1 сезон

iTunes

1

КиноПоиск HD

Кинопоиск HD

iTunes

13

1 сезон

RePack

30

Новинка

ВАЖНО

ИГРА 18+

pack

RePack

MK11
pack

Легкие деньги

RePack

jed

RePack

fifa19

RePack

RDR2

RePack

NEED FOR SPEED™ PAYBACK

4 сезон

9 сезон

Бесстыжие 9 сезон

Все сериалы

все сериалы на PB.wtf

RePack

FAR CRY 5
  
Magnet ссылка

Бабадук / The Babadook (Дженнифер Кент) [2014 г., ужасы, триллер, драма, WEB-DLRip, Авторский (А. Матвеев)] piratbit.pw

Бабадук через торрент piratbit.pw

Размер: 1.43 GB | Добавлен: 6 лет 5 мес. назад | Торрент скачан:195 раз
Скачать  

17-11-2014 19:55 Бабадук Скачать торрент  

Бабадук / The Babadook
Год выпуска: 2014
Страна: Австралия / Causeway Films, Smoking Gun Productions
Жанр: ужасы, триллер, драма
Продолжительность: 01:33:33
Перевод: Авторский [А. Матвеев] - Doctor_Joker
Субтитры: отсутствуют

Режиссер: Дженнифер Кент
Продюссер: Кристина Кейтон, Кристиан Мольере, Pete Best
Сценарий: Дженнифер Кент

Премьера в мире: 17 января 2014

IMDB 7.20 (1603)



В ролях: Эсси Дэвис, Ной Вайсман, Хейли МакЭлхинни, Дэниэл Хеншэлл, Барбара Уэст, Бенжамин Винспер, Тиффани Линдолл-Найт, Tim Purcell, Крэйг Бехенна, Кармел Джонсон

Описание: Овдовевшую женщину с шестилетним сыном начинает преследовать монстр Бабадук — герой из рассказов-ужасов. Поначалу нервное и странное поведение матери и сына кажется объяснимым для окружающих — без мужской поддержки прожить им сложно. Но вскоре открываются истинные причины, ведь по ночам к ним является Бабадук, чтобы напугать до смерти...

Качество: WEB-DLRip
Формат: AVI
Видео кодек: XviD
Аудио кодек: AC3
Видео: 1794 Кбит/сек, 720х304, 23,976 кадра/сек
Аудио: 384 Кбит/сек, 6 каналов, 48,0 КГц

Релиз от: makarevich



Сравнение с релизом 1,36 Gb: http://screenshotcomparison.com/comparison/100617




Формат : AVI
Формат/Информация : Audio Video Interleave
Размер файла : 1,43 Гбайт
Продолжительность : 1 ч. 33 м.
Общий поток : 2187 Кбит/сек
Библиотека кодирования : VirtualDub build 35390/release

Видео
Идентификатор : 0
Формат : MPEG-4 Visual
Профиль формата : Advanced Simple@L5
Параметр BVOP формата : 2
Параметр QPel формата : Нет
Параметр GMC формата : Без точки перехода
Параметр матрицы формата : Default (H.263)
Режим смешивания : Сжатый битовый поток
Идентификатор кодека : XVID
Идентификатор кодека/Подсказка : XviD
Продолжительность : 1 ч. 33 м.
Битрейт : 1794 Кбит/сек
Ширина : 720 пикселей
Высота : 304 пикселя
Соотношение сторон : 2,35:1
Частота кадров : 23,976 кадра/сек
Цветовое пространство : YUV
Субдискретизация насыщенности : 4:2:0
Битовая глубина : 8 бит
Тип развёртки : Прогрессивная
Метод сжатия : С потерями
Бит/(Пиксели*Кадры) : 0.342
Размер потока : 1,17 Гбайт (82%)
Библиотека кодирования : XviD 64

Аудио
Идентификатор : 1
Формат : AC-3
Формат/Информация : Audio Coding 3
Расширение режима : CM (complete main)
Параметр Endianness формата : Big
Идентификатор кодека : 2000
Продолжительность : 1 ч. 33 м.
Вид битрейта : Постоянный
Битрейт : 384 Кбит/сек
Каналы : 6 каналов
Расположение каналов : Front: L C R, Side: L R, LFE
Частота : 48,0 КГц
Битовая глубина : 16 бит
Метод сжатия : С потерями
Размер потока : 257 Мбайт (18%)
Выравнивание : Разделение по промежуткам
Продолжительность промежутка : 42 мс. (1,00 видеокадр)
Время предзагрузки промежутка : 500 мс.


Бабадук скачать торрент


piratbit.pw



Скачать Бабадук через торрент http://i68.fastpic.ru/big/2014/1117/43/d681d01b39a6c175b7fd7338c0a20043.jpg Скачать фильм Бабадук через торрент бесплантно в хорошем качестве Описание: Овдовевшую женщину с шестилетним сыном начинает преследовать монстр Бабадук — герой из рассказов-ужасов. Поначалу нервное и ... 9.8 10 9
Торрент: Зарегистрирован [2014-11-17 20:44] · скачан: 195 раз
Статус: √ проверено
Размер: 1.43 GB
Как cкачать? Как скачать Бабадук через торрент | UTorrent

% Раздел Тема Автор DL S | L
Фильмы 2014 [DVDrip, WEB-DLRip, HDrip] [ 1.46 GB ] Бабадук / The Babadook [2014 BDRip] - [] Twi7ter Скачать
2 | 0
Фильмы с авторской озвучкой [ 3.11 GB ] Бабадук / The Babadook [2014 WEB-DL 720p Авторский ] кэп Скачать
1 | 0
Фильмы [HD 720p, 1080p] (Хороший звук DUB, MVO) [ 4.48 GB ] Бабадук / The Babadook [2014 BDRip 720p [НТВ Ворон Скачать
1 | 0
Фильмы 2014 [DVDrip, WEB-DLRip, HDrip] [ 2.14 GB ] Бабадук / The Babadook [2014 BDRip-AVC от HELLYWOOD / [НТВ Ворон Скачать
1 | 0
Фильмы с авторской озвучкой [ 744 MB ] Бабадук / The Babadook [2014 WEB-DLRip] АVO khagkfgkahgaer Скачать
1 | 0
Фильмы без перевода [ 1.43 GB ] Бабадук / The Babadook [2014 WEB-DLRip Оригинал] makarevich Скачать
1 | 0


Последний раз редактировалось: makarevich (2014-11-18 07:30), всего редактировалось 3 раз(а)

28-11-2019 20:33  

Отключить всю рекламу на сайте

17-11-2014 21:23 Бабадук Скачать торрент  

Не плохой фильм, есть страшные моменты. Психи, страшнее, чем разные выдуманные чудовища, поэтому фильм наводит на размышления. Продолжение, как я понял - следует.piratbit.pw



07-12-2014 13:31 Бабадук Скачать торрент  

полностью согласен.фильм и правда не плохой,стоит потратить на него время yes Раздающему плюс +++piratbit.pw



    Дорогой пользователь! Огромная просьба, поблагодарите релизера, оцените раздачу и оставьте свои комментарий, если Вы скачали Бабадук через торрент бесплатно! Внесите свою лепту в развитие PiratBit!
    Комментировать посты могут только пользователи прошедшие не сложную регистрацию
    Показать сообщения:    

    Бабадук через торрент
    Скачать бесплатно Бабадук
    Бабадук скачать торрент
    Бабадук смотреть онлайн
    Cкачать фильм Бабадук бесплатно
    Бабадук скачать торрент в хорошем качестве
    Бабадук смотреть онлайн бесплатно в хорошем качестве


    Вы не можете начинать темы
    Вы не можете отвечать на сообщения
    Вы не можете редактировать свои сообщения
    Вы не можете удалять свои сообщения
    Вы не можете голосовать в опросах
    Вы не можете прикреплять файлы к сообщениям
    Вы можете скачивать файлы