Ссылка на приватное зеркало всего за 1$. Внимание количество ограничено!!!

iTunes

iTunes

iTunes

1

iTunes

iTunes

iTunes

iTunes

iTunes

30
pack

$ от Little Big

ВАЖНО

!!Акция!!

Alien_RageХит недели

RePack

Resident Evil 21

ИГРА 18+

pack

RePack

jed

!!Акция!!

Alien_Rage

RePack

fifa19

RePack

Assassins Creed: Odyssey

RePack

NEED FOR SPEED™ PAYBACK

4 сезон

9 сезон

Бесстыжие 9 сезон

Все сериалы

все сериалы на PB.wtf

RePack

FAR CRY 5
  

Беглецы (Рустам Мосафир) [2014 г., триллер, приключения,HDTVRip ] piratbit.pw

Беглецы через торрент piratbit.pw

Размер: 1.47 GB | Добавлен: 4 года 8 мес. назад | Торрент скачан:489 раз
Скачать  

16-11-2014 18:14 Беглецы Скачать торрент  

Беглецы
Год выпуска: 2014
Страна: Россия , Казахстан / Forma Pro Films
Жанр: триллер, приключения
Продолжительность: 01:28:09
Перевод: Не требуется
Режиссер: Рустам Мосафир

В ролях: Пётр Фёдоров, Елизавета Боярская, Валерий Гришко, Сергей Цепов, Александр Самойлов, Ерик Жолжаксынов, Кирилл Анисимов, Юрис Лауциньш, Сейдулла Молдаханов, Гульнур Кожахметова

Описание: Он — вне закона, по его пятам идут охотники за головами. Она знает тайгу, как свои пять пальцев, и только вместе они могут остаться в живых. Тайга общая: кто сильнее, тот и прав, а охота уже началась…

Качество: HDTVRip
Формат: AVI
Видео кодек: XviD
Аудио кодек: AC3
Видео: 720x400 (1.80:1), 25 fps, XviD build 50 ~1922 kbps avg, 0.27 bit/pixel(0.271 bit/pixel)
Аудио: 48 kHz, AC3 Dolby Digital, 3/2 (L,C,R,l,r) + LFE ch, ~448 kbps

скриншот   скриншот   скриншот   скриншот   скриншот   скриншот   скриншот   скриншот  

Общее
Полное имя : F:\кино\Беглецы.2014.HDTVRip.avi
Формат : AVI
Формат/Информация : Audio Video Interleave
Размер файла : 1,47 Гбайт
Продолжительность : 1 ч. 28 м.
Общий поток : 2381 Кбит/сек
Программа кодирования : VirtualDubMod 1.5.10.3 | www.virtualdub-fr.org || (build 2550/release)
Библиотека кодирования : VirtualDubMod build 2550/release

Видео
Идентификатор : 0
Формат : MPEG-4 Visual
Профиль формата : Advanced Simple@L5
Параметр BVOP формата : 2
Параметр QPel формата : Нет
Параметр GMC формата : Без точки перехода
Параметр матрицы формата : Default (H.263)
Идентификатор кодека : XVID
Идентификатор кодека/Подсказка : XviD
Продолжительность : 1 ч. 28 м.
Битрейт : 1923 Кбит/сек
Ширина : 720 пикселей
Высота : 400 пикселей
Соотношение сторон : 16:9
Частота кадров : 25,000 кадров/сек
Цветовое пространство : YUV
Субдискретизация насыщенности : 4:2:0
Битовая глубина : 8 бит
Тип развёртки : Прогрессивная
Метод сжатия : С потерями
Бит/(Пиксели*Кадры) : 0.267
Размер потока : 1,18 Гбайт (81%)
Библиотека кодирования : XviD 1.2.1 (UTC 2008-12-04)

Аудио
Идентификатор : 1
Формат : AC-3
Формат/Информация : Audio Coding 3
Расширение режима : CM (complete main)
Параметр Endianness формата : Big
Идентификатор кодека : 2000
Продолжительность : 1 ч. 28 м.
Вид битрейта : Постоянный
Битрейт : 448 Кбит/сек
Каналы : 6 каналов
Расположение каналов : Front: L C R, Side: L R, LFE
Частота : 48,0 КГц
Метод сжатия : С потерями
Размер потока : 283 Мбайт (19%)
Выравнивание : Разделение по промежуткам
Продолжительность промежутка : 40 мс. (1,00 видеокадр)
Время предзагрузки промежутка : 500 мс.

piratbit.pw



Скачать Беглецы через торрент http://pic.kartinco.top/images/8/9zwnd.jpg Скачать фильм Беглецы через торрент бесплантно в хорошем качестве Описание: Он — вне закона, по его пятам идут охотники за головами. Она знает тайгу, как свои пять пальцев, и только вместе они могут ... 8.8 10 40
Торрент: Зарегистрирован [2015-10-27 17:29] · скачан: 489 раз
Статус: √ проверено
Размер: 1.47 GB
Как cкачать? Как скачать Беглецы через торрент | qTorrent

% Раздел Тема Автор DL S | L
Фильмы с авторской озвучкой [ 1.51 GB ] Разгневанный беглец / Американец 2 / Outraged Fugitive / Without Mercy [1995 DVDRip] 2x[AVO] killermax2013 Скачать
1 | 0
Фильмы с авторской озвучкой [ 1.47 GB ] Беглецы компьютерных сетей / Virtual Combat [1995 DVDRip] 2xAVO Леонид Ильич Скачать
1 | 0
Зарубежные сериалы [ 35.25 GB ] Беглецы / Runaways / Сезон: 3 / Серии: 1-10 из 10 [2019 WEB-DL 1080p] MVO [Jaskier] bober100 Скачать
1 | 0
Зарубежные сериалы [ 20.51 GB ] Беглецы / Runaways / Сезон: 3 / Серии: 1-10 из 10 [2019 WEB-DL 720p] MVO [Jaskier] bober100 Скачать
1 | 0
Зарубежные сериалы [ 5.18 GB ] Беглецы / Runaways / Сезон: 3 / Серии: 1-10 из 10 [2019 WEB-DLRip] MVO [Jaskier] bober100 Скачать
2 | 0
Зарубежные сериалы [ 31.62 GB ] Беглецы / Runaways / Сезон: 2 / Серии: 1-13 из 13 [2018 WEB-DL 1080p] MVO [Lostfilm] bober100 Скачать
1 | 0
Наши новые фильмы 2018-2019 [ 1.46 GB ] Беглецы [2018 WEB-DLRip] bober100 Скачать
1 | 0


Последний раз редактировалось: coc900 (2015-10-27 17:29), всего редактировалось 1 раз

28-11-2019 20:33  

Отключить всю рекламу на сайте

20-11-2014 23:21 Беглецы Скачать торрент  

Заценим. Спасибо за раздачуpiratbit.pw



29-11-2014 14:23 Беглецы Скачать торрент  

Спасибо !!! piratbit.pw



27-10-2015 17:31 Беглецы Скачать торрент  

Релиз обновлен ! Просьба перекачать торрент файл! piratbit.pw



27-10-2015 18:34 Беглецы Скачать торрент  

Охота на пиранью?piratbit.pw



27-10-2015 18:47 Беглецы Скачать торрент  

недавно смотрел по тв. могли бы сделать и по-круче, и оконцовочку по-лучше.
мне понравилось: золото, медведи, охотники за беглыми и просто охотники.piratbit.pw



28-10-2015 03:58 Беглецы Скачать торрент  

Дурдом полный! Все одно и то-же по 100 раз заливают на трекеры! Только перериповал и файл получился на 50Мб. поменьше или побольше и сразу на трекер! Новое надо что-то заливать,а не СТАРОЕ и по 100 раз перерипоаное! Жаль,что я не умею залить на трекер раздачу! Есть много хроших фильмов! Ищите! И найдете! Конечно, наша кинопромышленность не блещет, но ведь можно и что-то новое найти, а не заливать одно и то-же по 10 раз! Кому надо-сам перерипует!!!!!! facepalmpiratbit.pw



    Дорогой пользователь! Огромная просьба, поблагодарите релизера, оцените раздачу и оставьте свои комментарий, если Вы скачали Беглецы через торрент бесплатно! Внесите свою лепту в развитие PiratBit!
    Комментировать посты могут только пользователи прошедшие не сложную регистрацию
    Показать сообщения:    

    Беглецы через торрент
    Скачать бесплатно Беглецы
    Беглецы скачать торрент
    Беглецы смотреть онлайн
    Cкачать фильм Беглецы бесплатно
    Беглецы скачать торрент в хорошем качестве
    Беглецы смотреть онлайн бесплатно в хорошем качестве


    Вы не можете начинать темы
    Вы не можете отвечать на сообщения
    Вы не можете редактировать свои сообщения
    Вы не можете удалять свои сообщения
    Вы не можете голосовать в опросах
    Вы не можете прикреплять файлы к сообщениям
    Вы можете скачивать файлы