Ссылка на приватное зеркало нашего сайта всего за 1$. Внимание количество ограничено!!!

2 сезон

iTunes

1 сезон

1

iTunes

iTunes

iTunes

1 сезон

RePack

30

ИГРА 18+

pack

ВАЖНО

!!Акция!!

Alien_RageХит недели

RePack

MK11
pack

Забери бонус

RePack

jed

!!Акция!!

Alien_Rage

RePack

fifa19

RePack

Assassins Creed: Odyssey

RePack

NEED FOR SPEED™ PAYBACK

4 сезон

9 сезон

Бесстыжие 9 сезон

Все сериалы

все сериалы на PB.wtf

RePack

FAR CRY 5
  

Кино про Алексеева (Михаил Сегал) [2014, Россия, драма, DVDRip) piratbit.pw

Кино про Алексеева через торрент piratbit.pw

Размер: 1.46 GB | Добавлен: 5 лет 11 мес. назад | Торрент скачан:682 раза
Скачать  

16-11-2014 03:45 Кино про Алексеева Скачать торрент  

Кино про Алексеева


  • Год выпуска: 2014
  • Страна: Россия
  • Жанр: драма
  • Продолжительность: 01:30:37
  • Перевод: Не требуется

  • Режиссер: Михаил Сегал
  • В ролях:

    Александр Збруев, Алексей Капитонов, Татьяна Майст, Ксения Радченко, Денис Фомин, Светлана Первушина, Анастасия Попкова, Андрей Макаревич, Дмитрий Гудочкин, Иван Звягинцев, Анастасия Смоктуновская, Максим Виноградов

  • Описание:
    Фильм-путешествие по удивительной жизни Алексеева. Он пил чай с Тарковским, попал в КГБ из-за Гагарина, конкурировал с Калашниковым и Высоцким. Однажды он узнаёт о себе нечто большее, чем знал и мог предполагать: о своём таланте, о следе, который оставил в судьбах других людей. Жизнь можно прожить заново, если тебя кто-то любит.
  • Рейтинг:



  • Качество: DVDRip
  • Формат: :AVI
  • Видео кодек: XviD
  • Аудио кодек: AC3
  • Видео: 720x304 (2.35:1), 1906 kbps, 25 fps, 0,348 bpp
  • Аудио: 5.1 / 48 kHz / 384 kbps / 16 bit
  • Релиз от: GEKADOL

    Код:

    Общее
    Полное имя                               : I:\Kino.pro.Alexeeva.2014.O.DVDRip.ELEKTRI4KA.avi
    Формат                                   : AVI
    Формат/Информация                        : Audio Video Interleave
    Размер файла                             : 1,46 Гбайт
    Продолжительность                        : 1 ч. 30 м.
    Общий поток                              : 2300 Кбит/сек
    Название фильма                          : Kino.pro.Alexeeva.2014.O.DVDRip.ELEKTRI4KA
    Режиссёр                                 : ELEKTRI4KA
    Программа кодирования                    : VirtualDubMod 1.5.10.2 (build 2540/release)
    Формат оригинала/Имя                     : Movie
    Правообладатель                          : uniongang.tv
    Примечание                               : R.G.ELEKTRI4KA

    Видео
    Идентификатор                            : 0
    Формат                                   : MPEG-4 Visual
    Профиль формата                          : Advanced Simple@L5
    Параметр BVOP формата                    : 2
    Параметр QPel формата                    : Нет
    Параметр GMC формата                     : Без точки перехода
    Параметр матрицы формата                 : Выборочная
    Идентификатор кодека                     : XVID
    Идентификатор кодека/Подсказка           : XviD
    Продолжительность                        : 1 ч. 30 м.
    Битрейт                                  : 1906 Кбит/сек
    Ширина                                   : 720 пикселей
    Высота                                   : 304 пикселя
    Соотношение сторон                       : 2,35:1
    Частота кадров                           : 25,000 кадров/сек
    Цветовое пространство                    : YUV
    Субдискретизация насыщенности            : 4:2:0
    Битовая глубина                          : 8 бит
    Тип развёртки                            : Прогрессивная
    Метод сжатия                             : С потерями
    Бит/(Пиксели*Кадры)                      : 0.348
    Размер потока                            : 1,21 Гбайт (83%)
    Библиотека кодирования                   : XviD 1.2.1 (UTC 2008-12-04)

    Аудио
    Идентификатор                            : 1
    Формат                                   : AC-3
    Формат/Информация                        : Audio Coding 3
    Расширение режима                        : CM (complete main)
    Параметр Endianness формата              : Big
    Идентификатор кодека                     : 2000
    Продолжительность                        : 1 ч. 30 м.
    Вид битрейта                             : Постоянный
    Битрейт                                  : 384 Кбит/сек
    Каналы                                   : 6 каналов
    Расположение каналов                     : Front: L C R, Side: L R, LFE
    Частота                                  : 48,0 КГц
    Битовая глубина                          : 16 бит
    Метод сжатия                             : С потерями
    Размер потока                            : 249 Мбайт (17%)
    Выравнивание                             : Разделение по промежуткам
    Продолжительность промежутка             : 40  мс. (1,00 видеокадр)
    Время предзагрузки промежутка            : 500  мс.


    Скриншоты:



    piratbit.pw



  • Скачать Кино про Алексеева через торрент http://i63.fastpic.ru/big/2014/1116/d4/2f14cc6c0b7d277be65d90472265d8d4.jpg Скачать фильм Кино про Алексеева через торрент бесплантно в хорошем качестве Описание: Фильм-путешествие по удивительной жизни Алексеева. Он пил чай с Тарковским, попал в КГБ из-за Гагарина, конкурировал с ... 9.3 10 15
    Торрент: Зарегистрирован [2014-11-16 03:45] · скачан: 682 раз
    Статус: √ проверено
    Размер: 1.46 GB
    Как cкачать? Как скачать Кино про Алексеева через торрент | qTorrent

    % Раздел Тема Автор DL S | L
    Наши фильмы (DVD фильмы) [ 4.12 GB ] Кино про Алексеева [2014 DVD5] R5 voovaz Скачать
    1 | 0

    28-11-2019 20:33  

    Отключить всю рекламу на сайте

    16-11-2014 13:01 Кино про Алексеева Скачать торрент  

    запутано .серьезно.грустноpiratbit.pw



    04-12-2014 14:13 Кино про Алексеева Скачать торрент  

    Оличное атмосферное кино...спасибо всем причастным.piratbit.pw



    10-12-2014 19:25 Кино про Алексеева Скачать торрент  

    или я давно драмы не смотрел, или это один из лучших фильмов про любовьpiratbit.pw



      Дорогой пользователь! Огромная просьба, поблагодарите релизера, оцените раздачу и оставьте свои комментарий, если Вы скачали Кино про Алексеева через торрент бесплатно! Внесите свою лепту в развитие PiratBit!
      Комментировать посты могут только пользователи прошедшие не сложную регистрацию
      Показать сообщения:    

      Кино про Алексеева через торрент
      Скачать бесплатно Кино про Алексеева
      Кино про Алексеева скачать торрент
      Кино про Алексеева смотреть онлайн
      Cкачать фильм Кино про Алексеева бесплатно
      Кино про Алексеева скачать торрент в хорошем качестве
      Кино про Алексеева смотреть онлайн бесплатно в хорошем качестве


      Вы не можете начинать темы
      Вы не можете отвечать на сообщения
      Вы не можете редактировать свои сообщения
      Вы не можете удалять свои сообщения
      Вы не можете голосовать в опросах
      Вы не можете прикреплять файлы к сообщениям
      Вы можете скачивать файлы