1 сезон

3 сезон

iTunes

1

iTunes

DUB Netflix

iTunes

13

1 сезон

RePack

30

Deluxe

pack

Легкие деньги

ВАЖНО

ИГРА 18+

pack

RePack

MK11

RePack

jed

RePack

fifa19

RePack

RDR2

RePack

NEED FOR SPEED™ PAYBACK

4 сезон

9 сезон

Бесстыжие 9 сезон

Все сериалы

все сериалы на PB.wtf

RePack

FAR CRY 5

Anonymous, добрый вечер, мы не успеваем до 1 числа собрать деньги на оплату серверов, помогите нам пожалуйста в это трудное время. В качестве благодарности мы отключим Вам всю рекламу на сайте (укажите свой ник в строку Ваше имя)!

×
  
Magnet ссылка

Мальчик в зеркале / O Menino no Espelho (Guilherme za Zenha) [2014, Бразилия, фэнтези, драма, приключения, HDRip,Любительский (одноголосый) piratbit.pw

Мальчик в зеркале через торрент piratbit.pw

Размер: 1.37 GB | Добавлен: 6 лет 7 мес. назад | Торрент скачан:52 раза
Скачать  

15-11-2014 19:32 Мальчик в зеркале Скачать торрент  

Мальчик в зеркале / O Menino no Espelho

Год выпуска: 2014
Страна: Бразилия
Жанр: фэнтези, драма, приключения, семейный
Продолжительность: 01:18:10
Перевод: Любительский (одноголосый)
Субтитры: Нет
Режиссер: Guilherme za Zenha
В ролях: Лино Фасиоль (Fernando / Odnanref), Режиане Алвес (Odete), Рикардо Блат (Major Pape Faria), Жизель Фроес (Professora), Мурилу Гросси, Ravi Hood, Лаура Нейва (Cíntia), Murilo Quirino, Матеус Солано (Domingos)
Описание:
У юного Фернандо вечно неприятности из-за его непоседливого характера. Когда он в очередной раз попадает впросак, его отражение из зеркала по имени Однанреф является в реальный мир, чтобы помочь справиться с возникшими проблемами. Но со временем события начинают развиваться совсем не так, как хотелось бы Фернандо...
Рейтинг
imdb.com: 7.00 (25)
Качество: HDRip
Формат: AVI
Видео кодек: XviD
Аудио кодек:AC3
Видео: XviD, 720x400 (16:9), 2045 kbps, 23,976 fps, 0,296 bpp
Аудио: AC3 / 5.1 / 48 kHz / 448 kbps / 16 bit

General
Complete name : D:\torrent\The.Boy.in.the.Mirror.2014.HDRip.avi
Format : AVI
Format/Info : Audio Video Interleave
File size : 1.37 GiB
Duration : 1h 18mn
Overall bit rate : 2 503 Kbps
Writing application : VirtualDubMod 1.5.10.2 (build 2542/release)
Writing library : VirtualDubMod build 2542/release

Video
ID : 0
Format : MPEG-4 Visual
Format profile : Advanced Simple@L5
Format settings, BVOP : 2
Format settings, QPel : No
Format settings, GMC : No warppoints
Format settings, Matrix : Default (MPEG)
Codec ID : XVID
Codec ID/Hint : XviD
Duration : 1h 18mn
Bit rate : 2 046 Kbps
Width : 720 pixels
Height : 400 pixels
Display aspect ratio : 16:9
Frame rate : 23.976 fps
Color space : YUV
Chroma subsampling : 4:2:0
Bit depth : 8 bits
Scan type : Progressive
Compression mode : Lossy
Bits/(Pixel*Frame) : 0.296
Stream size : 1.12 GiB (82%)
Writing library : XviD 1.2.1 (UTC 2008-12-04)

Audio
ID : 1
Format : AC-3
Format/Info : Audio Coding 3
Mode extension : CM (complete main)
Codec ID : 2000
Duration : 1h 18mn
Bit rate mode : Constant
Bit rate : 448 Kbps
Channel(s) : 6 channels
Channel positions : Front: L C R, Side: L R, LFE
Sampling rate : 48.0 KHz
Bit depth : 16 bits
Compression mode : Lossy
Stream size : 251 MiB (18%)
Alignment : Split accross interleaves
Interleave, duration : 42 ms (1.00 video frame)
Interleave, preload duration : 500 ms



piratbit.pw



Скачать Мальчик в зеркале через торрент http://i1.imageban.ru/out/2014/11/15/5e7ef02eb4c137d93801e6045e96b2b3.jpg Скачать фильм Мальчик в зеркале через торрент бесплантно в хорошем качестве Описание: У юного Фернандо вечно неприятности из-за его непоседливого характера. Когда он в очередной раз попадает впросак, его отражение ... 7 10 3
Торрент: Зарегистрирован [2014-11-15 19:32] · скачан: 52 раз
Статус: T временная
Размер: 1.37 GB
Как cкачать? Как скачать Мальчик в зеркале через торрент | UTorrent

28-11-2019 20:33  

Отключить всю рекламу на сайте

    Дорогой пользователь! Огромная просьба, поблагодарите релизера, оцените раздачу и оставьте свои комментарий, если Вы скачали Мальчик в зеркале через торрент бесплатно! Внесите свою лепту в развитие PiratBit!
    Комментировать посты могут только пользователи прошедшие не сложную регистрацию
    Показать сообщения:    

    Мальчик в зеркале через торрент
    Скачать бесплатно Мальчик в зеркале
    Мальчик в зеркале скачать торрент
    Мальчик в зеркале смотреть онлайн
    Cкачать фильм Мальчик в зеркале бесплатно
    Мальчик в зеркале скачать торрент в хорошем качестве
    Мальчик в зеркале смотреть онлайн бесплатно в хорошем качестве


    Вы не можете начинать темы
    Вы не можете отвечать на сообщения
    Вы не можете редактировать свои сообщения
    Вы не можете удалять свои сообщения
    Вы не можете голосовать в опросах
    Вы не можете прикреплять файлы к сообщениям
    Вы можете скачивать файлы