1 сезон

3 сезон

iTunes

1

iTunes

DUB Netflix

iTunes

13

1 сезон

RePack

30

Deluxe

pack

Легкие деньги

ВАЖНО

ИГРА 18+

pack

RePack

MK11

RePack

jed

RePack

fifa19

RePack

RDR2

RePack

NEED FOR SPEED™ PAYBACK

4 сезон

9 сезон

Бесстыжие 9 сезон

Все сериалы

все сериалы на PB.wtf

RePack

FAR CRY 5

Anonymous, добрый вечер, мы не успеваем до 1 числа собрать деньги на оплату серверов, помогите нам пожалуйста в это трудное время. В качестве благодарности мы отключим Вам всю рекламу на сайте (укажите свой ник в строку Ваше имя)!

×
  
Magnet ссылка

Стерео / Stereo (Maximilian Erlenwein) [2014, Германия, триллер, HDRip,Любительский (двухголосый)[den904, DeadSno] piratbit.pw

Стерео через торрент piratbit.pw

Размер: 1.39 GB | Добавлен: 6 лет 7 мес. назад | Торрент скачан:184 раза
Скачать  

14-11-2014 10:41 Стерео Скачать торрент  

Стерео / Stereo

Год выпуска: 2014
Страна: Германия
Жанр: триллер
Продолжительность: 01:37:40
Перевод: Любительский (двухголосый)[den904, DeadSno]
Субтитры: Нет
Режиссер: Maximilian Erlenwein
В ролях: Мориц Бляйбтрой (Henry), Юрген Фогель (Erik), Петра Шмидт-Шаллер (Julia), Георг Фридрих (Keitel), Райнер Бок (Wolfgang), Хакан Кан (Deisler), Paul Fassnacht (Hansen), Фабиан Хинрихс (Arzt), Юрген Хольц (Alter Geistheiler), Николь Маришка (Frau Saurion), Sophie Melbinger (Karin), Helena Schoenfelder (Linda)
Описание:
В жизни автослесаря Эрика появляется таинственный незнакомец - грубиян и провокатор. Но он знает что-то о прошлом Эрика, что сам Эрик очень хочет забыть.
Рейтинг
kinopoisk.ru: 6.150 (44)
imdb.com: 7.00 (519)
Качество: HDRip
Формат: AVI
Видео кодек: XviD
Аудио кодек:AC3
Видео: XviD, 720x304 (2.35:1), 1576 kbps, 24 fps, 0,300 bpp
Аудио: AC3 / 5.1 / 48 kHz / 448 kbps / 16 bit

Общее
Полное имя : D:\torrent\Стерео.2014.HDRip.avi
Формат : AVI
Формат/Информация : Audio Video Interleave
Размер файла : 1,39 Гбайт
Продолжительность : 1 ч. 37 м.
Общий поток : 2034 Кбит/сек
Программа кодирования : VirtualDubMod 1.5.10.2 (build 2542/release)
Библиотека кодирования : VirtualDubMod build 2542/release

Видео
Идентификатор : 0
Формат : MPEG-4 Visual
Профиль формата : Advanced Simple@L5
Параметр BVOP формата : 2
Параметр QPel формата : Нет
Параметр GMC формата : Без точки перехода
Параметр матрицы формата : Default (H.263)
Идентификатор кодека : XVID
Идентификатор кодека/Подсказка : XviD
Продолжительность : 1 ч. 37 м.
Битрейт : 1576 Кбит/сек
Ширина : 720 пикселей
Высота : 304 пикселя
Соотношение сторон : 2,35:1
Частота кадров : 24,000 кадра/сек
Цветовое пространство : YUV
Субдискретизация насыщенности : 4:2:0
Битовая глубина : 8 бит
Тип развёртки : Прогрессивная
Метод сжатия : С потерями
Бит/(Пиксели*Кадры) : 0.300
Размер потока : 1,08 Гбайт (78%)
Библиотека кодирования : XviD 1.2.1 (UTC 2008-12-04)

Аудио
Идентификатор : 1
Формат : AC-3
Формат/Информация : Audio Coding 3
Расширение режима : CM (complete main)
Параметр Endianness формата : Big
Идентификатор кодека : 2000
Продолжительность : 1 ч. 37 м.
Вид битрейта : Постоянный
Битрейт : 448 Кбит/сек
Каналы : 6 каналов
Расположение каналов : Front: L C R, Side: L R, LFE
Частота : 48,0 КГц
Битовая глубина : 16 бит
Метод сжатия : С потерями
Размер потока : 313 Мбайт (22%)
Выравнивание : Разделение по промежуткам
Продолжительность промежутка : 42 мс. (1,00 видеокадр)
Время предзагрузки промежутка : 500 мс.



piratbit.pw



Скачать Стерео через торрент http://i5.imageban.ru/out/2014/11/14/9f18894dd73478226d52c09b43973383.jpg Скачать фильм Стерео через торрент бесплантно в хорошем качестве Описание: В жизни автослесаря Эрика появляется таинственный незнакомец - грубиян и провокатор. Но он знает что-то о прошлом Эрика, что сам ... 8.8 10 5
Торрент: Зарегистрирован [2014-11-14 10:41] · скачан: 184 раз
Статус: T временная
Размер: 1.39 GB
Как cкачать? Как скачать Стерео через торрент | UTorrent

% Раздел Тема Автор DL S | L
3D Фильмы [ 28.57 GB ] Звёздные войны: Скайуокер. Восход в 3Д / Star Wars: Episode IX - The Rise of Skywalker 3D [2019 BDRip 1080p] OverUnder / Вертикальная стереопара () serega768 Скачать
1 | 0
3D Фильмы [ 14.57 GB ] Хан Соло: Звёздные войны. Истории в 3Д / Solo: A Star Wars Story 3D [2018 BDRip 1080p] OverUnder / Вертикальная стереопара serega768 Скачать
1 | 0
3D Фильмы [ 9.69 GB ] Хан Соло: Звёздные Войны. Истории 3Д / Solo: A Star Wars Story 3D [2018 BDRip 1080p] [Half OverUnder / Вертикальная анаморфная стереопара] DUB [] bober100 Скачать
1 | 0
3D Фильмы [ 14.62 GB ] Звездные войны: Последние джедаи 3Д / Star Wars: Episode VIII - The Last Jedi 3D [2017 BDRip 1080p] DUB [] [Локализованная версия] [Half OverUnder / Вертикальная анаморфная стереопара] bober100 Скачать
1 | 0
3D Фильмы [ 26.38 GB ] Звездные войны: Последние джедаи в 3Д / Star Wars: Episode VIII - The Last Jedi 3D [2017 BDrip 1080p] [] OverUnder / Вертикальная стереопара serega768 Скачать
1 | 0
3D Фильмы [ 20.67 GB ] Звездные войны: Последние джедаи в 3Д / Star Wars: Episode VIII - The Last Jedi 3D [2017 BDRip 1080p] AVO [Живов] + [Anamorph SideBySide / Горизонтальная анаморфная стереопара] bober100 Скачать
1 | 0
3D Фильмы [ 9.49 GB ] Изгой-один: Звёздные войны. Истории в 3Д / Rogue One: A Star Wars Story 3D [2016 BDrip 1080p] OverUnder / Вертикальная стереопара serega768 Скачать
2 | 0

28-11-2019 20:33  

Отключить всю рекламу на сайте

    Дорогой пользователь! Огромная просьба, поблагодарите релизера, оцените раздачу и оставьте свои комментарий, если Вы скачали Стерео через торрент бесплатно! Внесите свою лепту в развитие PiratBit!
    Комментировать посты могут только пользователи прошедшие не сложную регистрацию
    Показать сообщения:    

    Стерео через торрент
    Скачать бесплатно Стерео
    Стерео скачать торрент
    Стерео смотреть онлайн
    Cкачать фильм Стерео бесплатно
    Стерео скачать торрент в хорошем качестве
    Стерео смотреть онлайн бесплатно в хорошем качестве


    Вы не можете начинать темы
    Вы не можете отвечать на сообщения
    Вы не можете редактировать свои сообщения
    Вы не можете удалять свои сообщения
    Вы не можете голосовать в опросах
    Вы не можете прикреплять файлы к сообщениям
    Вы можете скачивать файлы