Ссылка на приватное зеркало нашего сайта всего за 1$. Внимание количество ограничено!!!

2 сезон

iTunes

1 сезон

1

iTunes

iTunes

iTunes

1 сезон

RePack

30

ИГРА 18+

pack

ВАЖНО

!!Акция!!

Alien_RageХит недели

RePack

MK11
pack

Забери бонус

RePack

jed

!!Акция!!

Alien_Rage

RePack

fifa19

RePack

Assassins Creed: Odyssey

RePack

NEED FOR SPEED™ PAYBACK

4 сезон

9 сезон

Бесстыжие 9 сезон

Все сериалы

все сериалы на PB.wtf

RePack

FAR CRY 5
  

Плоть и демоны / The Flesh and the Fiends (Джон Джиллинг / John Gilling) [1960, Великобритания, ужасы, DVDRip,Авторский (одноголосый)[Oneinchnales] piratbit.pw

Плоть и демоны через торрент piratbit.pw

Размер: 1.42 GB | Добавлен: 5 лет 11 мес. назад | Торрент скачан:8 раз
Скачать  

14-11-2014 07:28 Плоть и демоны Скачать торрент  

Плоть и демоны / The Flesh and the Fiends

Год выпуска: 1960
Страна: Великобритания
Жанр: ужасы

Продолжительность: 01:34:21
Перевод: Авторский одноголосый[Oneinchnales]
Субтитры: Нет
Режиссер: Джон Джиллинг / John Gilling
В ролях: Питер Кушинг (Dr. Robert Knox), Джун Лэверик (Martha Knox), Дональд Плезенс (William Hare), Джордж Роуз (William Burke), Рене Хьюстон (Helen Burke), Дермот Уолш (Dr. Geoffrey Mitchell), Билли Уайтлоу (Mary Patterson), Джон Кэйрни (Chris Jackson), Мелвин Хэйес (Daft Jamie), Джун Пауэлл (Maggie O'Hara), Эндрю Фолдс (Inspector McCulloch), Филип Ливер (Dr. Elliott)
Описание:
1820-е годы, Эдинбург. Доктору Ноксу нужны трупы для своих исследований. Но по закону для этих целей могут использоваться лишь трупы казненных преступников. Тогда доктор Нокс нанимает двух сомнительных проходимцев, которые, чтобы быстрее выполнять заказы, просто убивают людей, вместо того, чтобы выкапывать трупы на кладбище...
Рейтинг
kinopoisk.ru: 6.053 (40)
imdb.com: 7.10 (976)

Надеюсь, данная картина порадует всех любителей готического хоррора и просто увлекательного кино. Есть мнение, что это одна из лучших, если не лучшая роль Питера Кушинга. Очень убедительны также Дональд Плезенс и Джордж Роуз в ролях маньяков Бёрка и Хэйра, а музыка Стенли Блэка отлично нагнетает атмосферу. Хочу предупредить: фильм не для чувствительных натур и уж точно не для детей, так как содержит... много чего содержит. Несмотря на довольно бородатый возраст фильма, по воздействию я бы поставил его в один ряд с оригинальной "Техасской резнёй бензопилой" или "Генри: Портрет серийного убийцы". Рип найден в eMule. Перевод и озвучивание Oneinchnales
Качество: DVDRip
Формат: AVI
Видео кодек: XviD
Аудио кодек:AC3
Видео: XviD, 720x272 (2.647), 1749 kbps, 23,976 fps, 0,372 bpp
Аудио №1: AC3 / 2.0 / 48 kHz / 192 kbps / 16 bit Авторский одноголосый[Oneinchnales]русский
Аудио №2: AC3 / 2.0 / 48 kHz / 192 kbps / 16 bit Английский (оригинал)

General
Complete name : D:\torrent\Плоть и демоны.1960.DVDRip.XviD.AC3.Oneinchnales.avi
Format : AVI
Format/Info : Audio Video Interleave
File size : 1.42 GiB
Duration : 1h 34mn
Overall bit rate : 2 147 Kbps
Writing application : VirtualDubMod 1.5.10.2 (build 2540/release)
Writing library : VirtualDubMod build 2540/release

Video
ID : 0
Format : MPEG-4 Visual
Format profile : Advanced Simple@L5
Format settings, BVOP : 2
Format settings, QPel : No
Format settings, GMC : No warppoints
Format settings, Matrix : Default (H.263)
Codec ID : XVID
Codec ID/Hint : XviD
Duration : 1h 34mn
Bit rate : 1 749 Kbps
Width : 720 pixels
Height : 272 pixels
Display aspect ratio : 2.647
Frame rate : 23.976 fps
Color space : YUV
Chroma subsampling : 4:2:0
Bit depth : 8 bits
Scan type : Progressive
Compression mode : Lossy
Bits/(Pixel*Frame) : 0.372
Stream size : 1.15 GiB (81%)
Writing library : XviD 1.2.1 (UTC 2008-12-04)

Audio #1
ID : 1
Format : AC-3
Format/Info : Audio Coding 3
Mode extension : CM (complete main)
Codec ID : 2000
Duration : 1h 34mn
Bit rate mode : Constant
Bit rate : 192 Kbps
Channel(s) : 2 channels
Channel positions : Front: L R
Sampling rate : 48.0 KHz
Bit depth : 16 bits
Compression mode : Lossy
Stream size : 130 MiB (9%)
Alignment : Split accross interleaves
Interleave, duration : 42 ms (1.00 video frame)
Interleave, preload duration : 500 ms

Audio #2
ID : 2
Format : AC-3
Format/Info : Audio Coding 3
Mode extension : CM (complete main)
Codec ID : 2000
Duration : 1h 34mn
Bit rate mode : Constant
Bit rate : 192 Kbps
Channel(s) : 2 channels
Channel positions : Front: L R
Sampling rate : 48.0 KHz
Bit depth : 16 bits
Compression mode : Lossy
Stream size : 130 MiB (9%)
Alignment : Split accross interleaves
Interleave, duration : 42 ms (1.00 video frame)
Interleave, preload duration : 500 ms



piratbit.pw



Скачать Плоть и демоны через торрент http://i1.imageban.ru/out/2014/11/14/7ced55caea1af62bc58944f6bdf17be5.jpg Скачать фильм Плоть и демоны через торрент бесплантно в хорошем качестве Описание: 1820-е годы, Эдинбург. Доктору Ноксу нужны трупы для своих исследований. Но по закону для этих целей могут использоваться лишь ... 10 10 4
Торрент: Зарегистрирован [2014-11-14 07:28] · скачан: 8 раз
Статус: √ проверено
Размер: 1.42 GB
Как cкачать? Как скачать Плоть и демоны через торрент | qTorrent

28-11-2019 20:33  

Отключить всю рекламу на сайте

    Дорогой пользователь! Огромная просьба, поблагодарите релизера, оцените раздачу и оставьте свои комментарий, если Вы скачали Плоть и демоны через торрент бесплатно! Внесите свою лепту в развитие PiratBit!
    Комментировать посты могут только пользователи прошедшие не сложную регистрацию
    Показать сообщения:    

    Плоть и демоны через торрент
    Скачать бесплатно Плоть и демоны
    Плоть и демоны скачать торрент
    Плоть и демоны смотреть онлайн
    Cкачать фильм Плоть и демоны бесплатно
    Плоть и демоны скачать торрент в хорошем качестве
    Плоть и демоны смотреть онлайн бесплатно в хорошем качестве


    Вы не можете начинать темы
    Вы не можете отвечать на сообщения
    Вы не можете редактировать свои сообщения
    Вы не можете удалять свои сообщения
    Вы не можете голосовать в опросах
    Вы не можете прикреплять файлы к сообщениям
    Вы можете скачивать файлы