1 сезон

1 сезон

iTunes

1

КиноПоиск HD

Кинопоиск HD

iTunes

13

1 сезон

RePack

30

Новинка

ВАЖНО

ИГРА 18+

pack

RePack

MK11
pack

Легкие деньги

RePack

jed

RePack

fifa19

RePack

RDR2

RePack

NEED FOR SPEED™ PAYBACK

4 сезон

9 сезон

Бесстыжие 9 сезон

Все сериалы

все сериалы на PB.wtf

RePack

FAR CRY 5
  
Magnet ссылка

Ночной народ / Nightbreed (Клайв Баркер) [1990, ужасы, фэнтези, экранизация, BDRip 1080p] AVO piratbit.pw

Ночной народ через торрент piratbit.pw

Размер: 16.54 GB | Добавлен: 6 лет 5 мес. назад | Торрент скачан:25 раз
Скачать  

12-11-2014 16:20 Ночной народ Скачать торрент  

Ночной народ / Nightbreed

Год выпуска: 1990
Страна: США
Жанр: ужасы, фэнтези, экранизация
Продолжительность: 02:00:48
Перевод: авторский
Субтитры: английские

Режиссёр: Клайв Баркер

В ролях: Крэйг Шеффер, Энн Бобби, Дэвид Кроненберг, Чарльз Хэйд, Хью Куэрши, Хью Росс, Даг Брэдли, Катрин Шевалье, Малкольм Смит, Боб Сессионс

Описание: Молодой человек по имени Бун считает себя виновным в серии зверских убийств. В этом его убедил психиатр Декер. Бун ищет спасения в легендарном Мидиане, подземном городе беглецов, где прощаются все грехи. Этот город — убежище Ночного народа: древней расы чудовищных монстров, мутантов, живых мертвецов, меняющих свой облик и скрывающихся от дневного света и человеческих глаз.Тепло встреченный Ночным народом Бун отныне должен превыше всего ставить безопасность Мидиана. И навсегда забыть Лори, которая любит его и пытается разыскать. А по её следам идут полиция и Декер, мечтающий уничтожить Ночной народ… Фильм представляет собой экранизацию литературного произведения Клайва Баркера «Кабал» (в России известен под названием «Ночное племя»).



Качество: BDRip 1080p Сравнение с исходником
Формат: MKV
Видео кодек: H.264
Аудио кодек: DTS
Видео: 16.2 Mбит/с, 1920x1080, 23.976 кадра/с, 0.326 bpp
Аудио 1: русский, DTS, 1509 kbps, 6 ch, 48 kHz [авторский, Алексей Матвеев, с ненормативной лексикой]
Аудио 2: английский, DTS, 1509 kbps, 6 ch, 48 kHz [оригинал]

Имеются неименованные главы/чаптеры.

Автор рипа msltel
Сатурн, 1991 год
Номинации (3):
Лучший фильм ужасов
Лучший режиссер (Клайв Баркер)
Лучший грим
frame I:989 Avg QP:18.92 size:176010
frame P:33664 Avg QP:20.08 size:120981
frame B:139148 Avg QP:22.14 size: 77441

Общее
Уникальный идентификатор : 196269197284898367067118866389031028609 (0x93A8128A31D54477B75CE02E36798781)
Полное имя : D:VideoNochnoj narod.DirCut.1990.BDRip.1080p.mkv
Формат : Matroska
Версия формата : Version 4 / Version 2
Размер файла : 16,5 Гбайт
Продолжительность : 2 ч. 0 м.
Общий поток : 19,6 Мбит/сек
Дата кодирования : UTC 2014-11-12 13:00:36
Программа кодирования : mkvmerge v7.3.0 ('Nouages') 64bit built on Oct 22 2014 18:53:34
Библиотека кодирования : libebml v1.3.0 + libmatroska v1.4.1
DURATION : 01:50:31.415000000
NUMBER_OF_FRAMES : 1015
NUMBER_OF_BYTES : 31576
_STATISTICS_WRITING_APP : mkvmerge v7.3.0 ('Nouages') 64bit built on Oct 22 2014 18:53:34
_STATISTICS_WRITING_DATE_UTC : 2014-11-12 13:00:36
_STATISTICS_TAGS : BPS DURATION NUMBER_OF_FRAMES NUMBER_OF_BYTES

Видео
Идентификатор : 1
Формат : AVC
Формат/Информация : Advanced Video Codec
Профиль формата : High@L4.1
Параметр CABAC формата : Да
Параметр ReFrames формата : 4 кадра
Идентификатор кодека : V_MPEG4/ISO/AVC
Продолжительность : 2 ч. 0 м.
Битрейт : 16,2 Мбит/сек
Ширина : 1920 пикселей
Высота : 1080 пикселей
Соотношение сторон : 16:9
Режим частоты кадров : Постоянный
Частота кадров : 23,976 кадра/сек
Цветовое пространство : YUV
Субдискретизация насыщенности : 4:2:0
Битовая глубина : 8 бит
Тип развёртки : Прогрессивная
Бит/(Пиксели*Кадры) : 0.326
Размер потока : 13,7 Гбайт (83%)
Заголовок : BDRip -- STarankov
Библиотека кодирования : x264 core 142 r2431 ac76440
Настройки программы : cabac=1 / ref=4 / deblock=1:-1:-1 / analyse=0x3:0x113 / me=umh / subme=10 / psy=1 / psy_rd=1.00:0.15 / mixed_ref=1 / me_range=32 / chroma_me=1 / trellis=2 / 8x8dct=1 / cqm=0 / deadzone=21,11 / fast_pskip=1 / chroma_qp_offset=-3 / threads=6 / lookahead_threads=1 / sliced_threads=0 / nr=0 / decimate=1 / interlaced=0 / bluray_compat=0 / constrained_intra=0 / bframes=8 / b_pyramid=2 / b_adapt=2 / b_bias=0 / direct=3 / weightb=1 / open_gop=0 / weightp=2 / keyint=230 / keyint_min=23 / scenecut=40 / intra_refresh=0 / rc_lookahead=40 / rc=crf / mbtree=0 / crf=20.4 / qcomp=0.60 / qpmin=0 / qpmax=69 / qpstep=4 / vbv_maxrate=50000 / vbv_bufsize=62500 / crf_max=0.0 / nal_hrd=none / filler=0 / ip_ratio=1.40 / pb_ratio=1.30 / aq=1:1.00
Язык : English
Default : Да
Forced : Нет
DURATION : 02:00:48.950000000
NUMBER_OF_FRAMES : 173801
NUMBER_OF_BYTES : 15022506529
_STATISTICS_WRITING_APP : mkvmerge v7.3.0 ('Nouages') 64bit built on Oct 22 2014 18:53:34
_STATISTICS_WRITING_DATE_UTC : 2014-11-12 13:00:36
_STATISTICS_TAGS : BPS DURATION NUMBER_OF_FRAMES NUMBER_OF_BYTES

Аудио #1
Идентификатор : 2
Формат : DTS
Формат/Информация : Digital Theater Systems
Режим : 16
Параметр Endianness формата : Big
Идентификатор кодека : A_DTS
Продолжительность : 2 ч. 0 м.
Вид битрейта : Постоянный
Битрейт : 1509 Кбит/сек
Каналы : 6 каналов
Расположение каналов : Front: L C R, Side: L R, LFE
Частота : 48,0 КГц
Битовая глубина : 24 бит
Метод сжатия : С потерями
Размер потока : 1,27 Гбайт (8%)
Заголовок : AVO (Алексей Матвеев)
Язык : Russian
Default : Да
Forced : Нет

Аудио #2
Идентификатор : 3
Формат : DTS
Формат/Информация : Digital Theater Systems
Режим : 16
Параметр Endianness формата : Big
Идентификатор кодека : A_DTS
Продолжительность : 2 ч. 0 м.
Вид битрейта : Постоянный
Битрейт : 1509 Кбит/сек
Каналы : 6 каналов
Расположение каналов : Front: L C R, Side: L R, LFE
Частота : 48,0 КГц
Битовая глубина : 24 бит
Метод сжатия : С потерями
Размер потока : 1,27 Гбайт (8%)
Заголовок : Original
Язык : English
Default : Нет
Forced : Нет

Текст
Идентификатор : 4
Формат : UTF-8
Идентификатор кодека : S_TEXT/UTF8
Идентификатор кодека/Информация : UTF-8 Plain Text
Заголовок : английский
Язык : English
Default : Нет
Forced : Нет

Меню
00:00:00.000 : en:00:00:00.000
00:05:10.477 : en:00:05:10.477
00:13:51.873 : en:00:13:51.873
00:30:36.668 : en:00:30:36.668
00:41:17.308 : en:00:41:17.308
00:53:49.560 : en:00:53:49.560
01:00:18.615 : en:01:00:18.615
01:09:42.387 : en:01:09:42.387
01:14:14.867 : en:01:14:14.867
01:25:50.979 : en:01:25:50.979
01:34:53.897 : en:01:34:53.897
01:43:32.373 : en:01:43:32.373
piratbit.pw



Скачать Ночной народ через торрент http://i67.fastpic.ru/big/2014/1112/0e/395e184a8aa3117e00dd35d9ea3dd90e.jpg Скачать фильм Ночной народ через торрент бесплантно в хорошем качестве Описание: Молодой человек по имени Бун считает себя виновным в серии зверских убийств. В этом его убедил психиатр Декер. Бун ищет спасения ... 10 10 4
Info! Золотая раздача, скачанное не засчитывается.
Торрент: Зарегистрирован [2014-11-12 16:20] · скачан: 25 раз
Статус: √ проверено
Размер: 16.54 GB
Как cкачать? Как скачать Ночной народ через торрент | UTorrent

% Раздел Тема Автор DL S | L
Фильмы с авторской озвучкой [ 7.05 GB ] Ночной народ / Nightbreed [1990 экранизация BDRip 720p] AVO msltel Скачать
1 | 0

28-11-2019 20:33  

Отключить всю рекламу на сайте

12-11-2014 17:33 Ночной народ Скачать торрент  

Тема! Вспомню детство :)piratbit.pw



    Дорогой пользователь! Огромная просьба, поблагодарите релизера, оцените раздачу и оставьте свои комментарий, если Вы скачали Ночной народ через торрент бесплатно! Внесите свою лепту в развитие PiratBit!
    Комментировать посты могут только пользователи прошедшие не сложную регистрацию
    Показать сообщения:    

    Ночной народ через торрент
    Скачать бесплатно Ночной народ
    Ночной народ скачать торрент
    Ночной народ смотреть онлайн
    Cкачать фильм Ночной народ бесплатно
    Ночной народ скачать торрент в хорошем качестве
    Ночной народ смотреть онлайн бесплатно в хорошем качестве


    Вы не можете начинать темы
    Вы не можете отвечать на сообщения
    Вы не можете редактировать свои сообщения
    Вы не можете удалять свои сообщения
    Вы не можете голосовать в опросах
    Вы не можете прикреплять файлы к сообщениям
    Вы можете скачивать файлы