Ссылка на приватное зеркало нашего сайта всего за 1$. Внимание количество ограничено!!!

2 сезон

iTunes

1 сезон

1

iTunes

iTunes

iTunes

1 сезон

RePack

30

ИГРА 18+

pack

ВАЖНО

!!Акция!!

Alien_RageХит недели

RePack

MK11
pack

Забери бонус

RePack

jed

!!Акция!!

Alien_Rage

RePack

fifa19

RePack

Assassins Creed: Odyssey

RePack

NEED FOR SPEED™ PAYBACK

4 сезон

9 сезон

Бесстыжие 9 сезон

Все сериалы

все сериалы на PB.wtf

RePack

FAR CRY 5
  

Отверженные / Les Miserables (Клод Лелуш / Claude Lelouch) [1995 г., приключения, драма, военный, DVD9] Dub + MVO + Original Fre piratbit.pw

Отверженные через торрент piratbit.pw

Качают: 1 [ 0 KB/s ]
Размер: 7.88 GB | Добавлен: 5 лет 11 мес. назад | Торрент скачан:8 раз
Скачать  

12-11-2014 09:49 Отверженные Скачать торрент  

Отверженные / Les Miserables
Год выпуска: 1995
Страна: Франция
Жанр: приключения, драма, военный
Продолжительность: 02:47:12
Перевод: Профессиональный (дублированный)/ Профессиональный (многоголосый закадровый)

Режиссер: Клод Лелуш / Claude Lelouch



В ролях: Жан-Поль Бельмондо, Мишель Бужена, Алессандра Мартинес, Салом Лелуш, Анни Жирардо, Филипп Леотар, Клементин Селарье, Руфус, Жан Марэ

Описание: Картина по мотивам романа Гюго. Фильм о двух семьях, которые во время Второй мировой войны преодолевают почти непреодолимые препятствия.
Бельмондо играет сразу трех героев разных временных периодов. И играет потрясающе! Собственно идея фильма- это переложение событий классического сюжета на современные реалии ХХ века. Оказывается человеческая природа вовсе не изменилась за сотни лет, и всегда можно найти своего Тенардье и своего Вальжана. В переломные моменты истории, когда жестокость и подлость не сдерживаются никакими нормами морали, вся человеческая муть, до поры таившаяся, лезет агрессивно наружу. Судьба евреев во время нацистской оккупации- богатый материал, где оживают и подлые и нравственно чистые персонажи Гюго.

Доп. информация: Бонусы: Видео-клип с песней в исполнении Патрисии Каас (Particia Kaas).

Качество: DVD9
Формат: DVD Video
Видео кодек: MPEG2
Аудио кодек: AC3
Видео: 720x576, VBR, 16:9, 5700 kbps, 25,00
Аудио#1: Rus, 2 ch, 48 kHz, 192 kbps
Аудио#2: Rus , 2 ch, 48 kHz, 192 kbps
Аудио#3: France, 2 ch, 48 kHz, 448 kbps
General
Complete name : F:\Отверженные Les Miserables (Клод Лелуш Claude Lelouch)\Otverzhennye_DVD9\VIDEO_TS\VTS_01_1.VOB
Format : MPEG-PS
File size : 1 024 MiB
Duration : 21mn 30s
Overall bit rate mode : Variable
Overall bit rate : 6 657 Kbps

Video
ID : 224 (0xE0)
Format : MPEG Video
Format version : Version 2
Format profile : Main@Main
Format settings, BVOP : Yes
Format settings, Matrix : Default
Format settings, GOP : M=3, N=26
Format settings, picture structure : Field
Duration : 21mn 30s
Bit rate mode : Variable
Bit rate : 5 700 Kbps
Width : 720 pixels
Height : 576 pixels
Display aspect ratio : 2.40:1
Frame rate : 25.000 fps
Standard : PAL
Color space : YUV
Chroma subsampling : 4:2:0
Bit depth : 8 bits
Scan type : Interlaced
Scan order : Top Field First
Compression mode : Lossy
Bits/(Pixel*Frame) : 0.550
Time code of first frame : 09:59:59:24
Time code source : Group of pictures header
Stream size : 876 MiB (86%)
Color primaries : BT.601 PAL
Transfer characteristics : BT.470 System B, BT.470 System G
Matrix coefficients : BT.601

Audio #1
ID : 189 (0xBD)-128 (0x80)
Format : AC-3
Format/Info : Audio Coding 3
Mode extension : CM (complete main)
Format settings, Endianness : Big
Muxing mode : DVD-Video
Duration : 21mn 30s
Bit rate mode : Constant
Bit rate : 192 Kbps
Channel(s) : 2 channels
Channel positions : Front: L R
Sampling rate : 48.0 KHz
Bit depth : 16 bits
Compression mode : Lossy
Stream size : 29.5 MiB (3%)

Audio #2
ID : 189 (0xBD)-129 (0x81)
Format : AC-3
Format/Info : Audio Coding 3
Mode extension : CM (complete main)
Format settings, Endianness : Big
Muxing mode : DVD-Video
Duration : 21mn 30s
Bit rate mode : Constant
Bit rate : 192 Kbps
Channel(s) : 2 channels
Channel positions : Front: L R
Sampling rate : 48.0 KHz
Bit depth : 16 bits
Compression mode : Lossy
Stream size : 29.5 MiB (3%)

Audio #3
ID : 189 (0xBD)-130 (0x82)
Format : AC-3
Format/Info : Audio Coding 3
Mode extension : CM (complete main)
Format settings, Endianness : Big
Muxing mode : DVD-Video
Duration : 21mn 30s
Bit rate mode : Constant
Bit rate : 448 Kbps
Channel(s) : 2 channels
Channel positions : Front: L R
Sampling rate : 48.0 KHz
Bit depth : 16 bits
Compression mode : Lossy
Stream size : 68.9 MiB (7%)

Menu


Отверженные скачать торрент


piratbit.pw



Скачать Отверженные через торрент http://pic.kartinco.top/images/8/lkfya.jpg Скачать фильм Отверженные через торрент бесплантно в хорошем качестве Описание: Картина по мотивам романа Гюго. Фильм о двух семьях, которые во время Второй мировой войны преодолевают почти непреодолимые ... 10 10 3
Info! Золотая раздача, скачанное не засчитывается.
Торрент: Зарегистрирован [2014-11-12 09:49] · скачан: 8 раз
Статус: √ проверено
Размер: 7.88 GB
Как cкачать? Как скачать Отверженные через торрент | qTorrent

28-11-2019 20:33  

Отключить всю рекламу на сайте

    Дорогой пользователь! Огромная просьба, поблагодарите релизера, оцените раздачу и оставьте свои комментарий, если Вы скачали Отверженные через торрент бесплатно! Внесите свою лепту в развитие PiratBit!
    Комментировать посты могут только пользователи прошедшие не сложную регистрацию
    Показать сообщения:    

    Отверженные через торрент
    Скачать бесплатно Отверженные
    Отверженные скачать торрент
    Отверженные смотреть онлайн
    Cкачать фильм Отверженные бесплатно
    Отверженные скачать торрент в хорошем качестве
    Отверженные смотреть онлайн бесплатно в хорошем качестве


    Вы не можете начинать темы
    Вы не можете отвечать на сообщения
    Вы не можете редактировать свои сообщения
    Вы не можете удалять свои сообщения
    Вы не можете голосовать в опросах
    Вы не можете прикреплять файлы к сообщениям
    Вы можете скачивать файлы