Ссылка на приватное зеркало нашего сайта всего за 1$. Внимание количество ограничено!!!

2 сезон

iTunes

1 сезон

1

iTunes

iTunes

iTunes

1 сезон

RePack

30

ИГРА 18+

pack

ВАЖНО

!!Акция!!

Alien_RageХит недели

RePack

MK11
pack

Забери бонус

RePack

jed

!!Акция!!

Alien_Rage

RePack

fifa19

RePack

Assassins Creed: Odyssey

RePack

NEED FOR SPEED™ PAYBACK

4 сезон

9 сезон

Бесстыжие 9 сезон

Все сериалы

все сериалы на PB.wtf

RePack

FAR CRY 5
  

Граф Монте-Кристо / Le Comte de Monte Cristo (Жози Дайан / Josee Dayan) [1998 г., драма, приключения, мелодрама, BDRip] MVO (Кармен Видео) + DVO + MVO (НТВ) + Sub Rus + Original Fre piratbit.pw

Граф Монте-Кристо через торрент piratbit.pw

Размер: 7.41 GB | Добавлен: 5 лет 11 мес. назад | Торрент скачан:34 раза
Скачать  

12-11-2014 08:04 Граф Монте-Кристо Скачать торрент  

Граф Монте-Кристо / Le Comte de Monte Cristo
Год выпуска: 1998
Страна: Франция
Жанр: драма, приключения, мелодрама
Продолжительность: 01:37:44 + 01:42:29 + 01:42:20 + 01:32:00
Перевод: Профессиональный (многоголосый закадровый) - Кармен Видео
Субтитры: русские (отдельно)
Отдельно:Профессиональный (двухголосый закадровый), Профессиональный (многоголосый закадровый) - НТВ, Оригинальная аудиодорожка: французский
Режиссер: Жози Дайан / Josee Dayan



В ролях: Жерар Депардье, Орнелла Мути, Жан Рошфор, Пьер Ардити, Серджо Рубини, Мишель Омон, Флоранс Дарель, Жан-Марк Тибо, Жюли Депардье, Кристофер Томпсон, Ролан Бланш, Жорж Мустаки, Элен Венсан, Станислас Мерхар, Стефан Герен-Тилли, Гийом Депардье, Патрик Бушите, Констанс Энгельбрехат, Мишлин Пресль, Жан-Клод Бриали, Инес Састр

Описание: Блистательная экранизация знаменитого романа Александра Дюма. Эдмон Дантес несправедливо приговорен к 14-летнему тюремному заключению и отбывает срок в замке Иф, расположенном на далеком острове в Средиземном море. В темнице Дантес знакомится с товарищем по несчастью, который рассказывает ему о невероятном сокровище, ждущем Дантеса на свободе. Спустя год кропотливой подготовки Дантесу удается бежать и завладеть богатством. Но до тех пор, пока он оклеветан, Дантес не может появиться в обществе. Так на свет появляется загадочный граф Монте-Кристо, скрывающий свое лицо, чтобы по очереди отомстить тем, по чьей милости он лишился молодости, честного имени и любимой женщины Мерседес…

Качество: BDRip
Формат: AVI
Видео кодек: XviD
Аудио кодек: AC3
Видео: 720x400 (1.80:1), 25 fps, ~1929 kbps avg, 0.27 bit/pixel
Аудио#1: ru 48 kHz, Dolby Digital, 2/0 (L,R) ch, ~192 kbps - Кармен Видео
Аудио#2: ru 48 kHz, Dolby Digital, 2/0 (L,R) ch, ~192 kbps dvo отдельно
Аудио#3: ru 48 kHz,Dolby Digital, 2/0 (L,R) ch, ~192 kbps - НТВ отдельно
Аудио#4: fre 48 kHz,Dolby Digital, 2/0 (L,R) ch, ~192 kbps отдельно
Complete name : F:\01.Monte.Cristo.avi
Format : AVI
Format/Info : Audio Video Interleave
File size : 1.46 GiB
Duration : 1h 37mn
Overall bit rate : 2 131 Kbps
Writing application : VirtualDubMod 1.5.10.3 | (build 2550/release)
Writing library : VirtualDubMod build 2550/release

Video
ID : 0
Format : MPEG-4 Visual
Format profile : Advanced Simple@L5
Format settings, BVOP : 2
Format settings, QPel : No
Format settings, GMC : No warppoints
Format settings, Matrix : Custom
Codec ID : XVID
Codec ID/Hint : XviD
Duration : 1h 37mn
Bit rate : 1 930 Kbps
Width : 720 pixels
Height : 400 pixels
Display aspect ratio : 16:9
Frame rate : 25.000 fps
Color space : YUV
Chroma subsampling : 4:2:0
Bit depth : 8 bits
Scan type : Progressive
Compression mode : Lossy
Bits/(Pixel*Frame) : 0.268
Stream size : 1.32 GiB (91%)
Writing library : XviD 65

Audio
ID : 1
Format : AC-3
Format/Info : Audio Coding 3
Mode extension : CM (complete main)
Format settings, Endianness : Big
Codec ID : 2000
Duration : 1h 37mn
Bit rate mode : Constant
Bit rate : 192 Kbps
Channel(s) : 2 channels
Channel positions : Front: L R
Sampling rate : 48.0 KHz
Bit depth : 16 bits
Compression mode : Lossy
Stream size : 134 MiB (9%)
Alignment : Split accross interleaves
Interleave, duration : 40 ms (1.00 video frame)
Interleave, preload duration : 500 ms


Граф Монте-Кристо скачать торрент


piratbit.pw



Скачать Граф Монте-Кристо через торрент http://pic.kartinco.top/images/8/pfci9.jpg Скачать фильм Граф Монте-Кристо через торрент бесплантно в хорошем качестве Описание: Блистательная экранизация знаменитого романа Александра Дюма. Эдмон Дантес несправедливо приговорен к 14-летнему тюремному ... 10 10 5
Info! Золотая раздача, скачанное не засчитывается.
Торрент: Зарегистрирован [2014-11-12 08:04] · скачан: 34 раз
Статус: √ проверено
Размер: 7.41 GB
Как cкачать? Как скачать Граф Монте-Кристо через торрент | qTorrent

28-11-2019 20:33  

Отключить всю рекламу на сайте

12-11-2014 08:11 Граф Монте-Кристо Скачать торрент  

Спасибо, глянем с паханом на выходных )piratbit.pw



12-11-2014 09:21 Граф Монте-Кристо Скачать торрент  

Огромное спасибо за такой замечательный фильм!!!!piratbit.pw



    Дорогой пользователь! Огромная просьба, поблагодарите релизера, оцените раздачу и оставьте свои комментарий, если Вы скачали Граф Монте-Кристо через торрент бесплатно! Внесите свою лепту в развитие PiratBit!
    Комментировать посты могут только пользователи прошедшие не сложную регистрацию
    Показать сообщения:    

    Граф Монте-Кристо через торрент
    Скачать бесплатно Граф Монте-Кристо
    Граф Монте-Кристо скачать торрент
    Граф Монте-Кристо смотреть онлайн
    Cкачать фильм Граф Монте-Кристо бесплатно
    Граф Монте-Кристо скачать торрент в хорошем качестве
    Граф Монте-Кристо смотреть онлайн бесплатно в хорошем качестве


    Вы не можете начинать темы
    Вы не можете отвечать на сообщения
    Вы не можете редактировать свои сообщения
    Вы не можете удалять свои сообщения
    Вы не можете голосовать в опросах
    Вы не можете прикреплять файлы к сообщениям
    Вы можете скачивать файлы