Ссылка на приватное зеркало нашего сайта всего за 1$. Внимание количество ограничено!!!

2 сезон

iTunes

1 сезон

1

iTunes

iTunes

iTunes

1 сезон

RePack

30

ИГРА 18+

pack

ВАЖНО

!!Акция!!

Alien_RageХит недели

RePack

MK11
pack

Забери бонус

RePack

jed

!!Акция!!

Alien_Rage

RePack

fifa19

RePack

Assassins Creed: Odyssey

RePack

NEED FOR SPEED™ PAYBACK

4 сезон

9 сезон

Бесстыжие 9 сезон

Все сериалы

все сериалы на PB.wtf

RePack

FAR CRY 5
  

Корпоратив (Олег Асадулин) [2014, Россия, комедия, WEB-DLRip-AVC,] ] От R.G. PiratFilms piratbit.pw

Корпоратив через торрент piratbit.pw

Размер: 1.42 GB | Добавлен: 5 лет 11 мес. назад | Торрент скачан:509 раз
Скачать  

10-11-2014 08:20 Корпоратив Скачать торрент  




Год выпуска: 2014
Страна: Россия
Жанр: комедия

Продолжительность: 01:25:05
Перевод: Не требуется
Субтитры: Нет
Режиссер: Олег Асадулин
В ролях:

Николай Наумов, Владимир Толоконников, Мирослава Карпович, Андрей Федорцов, Аристарх Венес, Марина Федункив, Михаил Башкатов, Максим Виторган, Сергей Белоголовцев, Роман Юнусов, Сергей Селин, Наталия Медведева
Описание:
Игорь - старший менеджер в мебельном салоне, мечтающий о повышении. На следующий день после корпоративной вечеринки он обнаруживает, что салон полностью разгромлен. Сотрудники утверждают, что когда они уходили, всё было в порядке. Игоря это не устраивает, ведь теперь на кону его карьера. Пытаясь выяснить, что же произошло, Игорь узнаёт шокирующие подробности о ночных приключениях своих коллег...
Мировая премьера: 18 сентября 2014
Релиз от:
    Качество: WEB-DLRip-AVC (исх. WEB-DLRip 1080p)
    Формат: MKV
    Видео кодек: AVC
    Аудио кодек:AC3
    Видео: AVC, 1024x576 (16:9), 2012 kbps, 25 fps, 0,136 bpp
    Аудио: русский / AC3 / 5.1 / 48 kHz / 384 kbps / 16 bit ||


Код:

---[Information] [08.11.2014 3:08:42] x264 [info]: frame I:1564  Avg QP:15.56  size: 73446  PSNR Mean Y:48.27 U:50.97 V:51.01 Avg:48.94 Global:48.63
---[Information] [08.11.2014 3:08:42] x264 [info]: frame P:32468 Avg QP:18.76  size: 20391  PSNR Mean Y:45.51 U:49.72 V:49.47 Avg:46.36 Global:45.96
---[Information] [08.11.2014 3:08:42] x264 [info]: frame B:93611 Avg QP:21.35  size:  5402  PSNR Mean Y:45.11 U:50.26 V:49.92 Avg:46.05 Global:45.53
---[Information] [08.11.2014 3:08:42] x264 [info]: consecutive B-frames:  1.9%  2.9%  3.2% 83.5%  2.1%  2.9%  1.6%  1.5%  0.3%

Код:

General
Unique ID                                : 200510259263361557956038758588241890203 (0x96D8DF0A0EB9CE1EADEA213AA8B74B9B)
Complete name                            : D:\рипы От R.G. PiratFilms\K0rp0Rat1v.2014.WEB DLRip-AVC.by.White Smoke.R.G.PiratFilms.mkv
Format                                   : Matroska
Format version                           : Version 4 / Version 2
File size                                : 1.42 GiB
Duration                                 : 1h 25mn
Overall bit rate                         : 2 396 Kbps
Encoded date                             : UTC 2014-11-10 07:12:27
Writing application                      : mkvmerge v6.8.0 ('Theme for Great Cities') 64bit built on Mar  2 2014 21:34:26
Writing library                          : libebml v1.3.0 + libmatroska v1.4.1

Video
ID                                       : 1
Format                                   : AVC
Format/Info                              : Advanced Video Codec
Format profile                           : High@L4.1
Format settings, CABAC                   : Yes
Format settings, ReFrames                : 12 frames
Codec ID                                 : V_MPEG4/ISO/AVC
Duration                                 : 1h 25mn
Bit rate                                 : 2 012 Kbps
Width                                    : 1 024 pixels
Height                                   : 576 pixels
Display aspect ratio                     : 16:9
Frame rate                               : 25.000 fps
Color space                              : YUV
Chroma subsampling                       : 4:2:0
Bit depth                                : 8 bits
Scan type                                : Progressive
Bits/(Pixel*Frame)                       : 0.136
Stream size                              : 1.17 GiB (82%)
Writing library                          : x264 core 142 r2431 ac76440
Encoding settings                        : cabac=1 / ref=12 / deblock=1:-3:-3 / analyse=0x3:0x113 / me=umh / subme=9 / psy=1 / psy_rd=1.00:0.00 / mixed_ref=1 / me_range=32 / chroma_me=1 / trellis=1 / 8x8dct=1 / cqm=0 / deadzone=21,11 / fast_pskip=1 / chroma_qp_offset=-2 / threads=12 / lookahead_threads=2 / sliced_threads=0 / nr=0 / decimate=1 / interlaced=0 / bluray_compat=0 / constrained_intra=0 / bframes=8 / b_pyramid=2 / b_adapt=2 / b_bias=8 / direct=1 / weightb=0 / open_gop=0 / weightp=2 / keyint=250 / keyint_min=25 / scenecut=40 / intra_refresh=0 / rc_lookahead=40 / rc=2pass / mbtree=1 / bitrate=2012 / ratetol=1.0 / qcomp=0.65 / qpmin=0 / qpmax=69 / qpstep=4 / cplxblur=20.0 / qblur=0.5 / ip_ratio=1.40 / aq=1:1.00
Language                                 : English
Default                                  : Yes
Forced                                   : No

Audio
ID                                       : 2
Format                                   : AC-3
Format/Info                              : Audio Coding 3
Mode extension                           : CM (complete main)
Codec ID                                 : A_AC3
Duration                                 : 1h 25mn
Bit rate mode                            : Constant
Bit rate                                 : 384 Kbps
Channel(s)                               : 6 channels
Channel positions                        : Front: L C R, Side: L R, LFE
Sampling rate                            : 48.0 KHz
Bit depth                                : 16 bits
Compression mode                         : Lossy
Stream size                              : 234 MiB (16%)
Language                                 : Russian
Default                                  : Yes
Forced                                   : No


Скриншоты:



piratbit.pw



Скачать Корпоратив через торрент http://pic.kartinco.top/images/8/ytcao.jpg Скачать фильм Корпоратив через торрент бесплантно в хорошем качестве Описание: Игорь - старший менеджер в мебельном салоне, мечтающий о повышении. На следующий день после корпоративной вечеринки он ... 7.5 10 15
Info! Золотая раздача, скачанное не засчитывается.
Торрент: Зарегистрирован [2014-11-10 08:20] · скачан: 509 раз
Статус: √ проверено
Размер: 1.42 GB
Как cкачать? Как скачать Корпоратив через торрент | qTorrent

28-11-2019 20:33  

Отключить всю рекламу на сайте

10-11-2014 13:00 Корпоратив Скачать торрент  

ох,ох,ох как "засрали" на Кинопоиске(И скорее всего не только там),поэтому не рискну тратить свое время на этот фильм.Подожду отзывов непосредственно на данном сайте)piratbit.pw



10-11-2014 18:52 Корпоратив Скачать торрент  

на раз.
сказать что совсем гом., то нет , но и особой худ ценности не представляет. просмотреть стоит ради того, что бы почувствовать разницу в рос. кино.piratbit.pw



    Дорогой пользователь! Огромная просьба, поблагодарите релизера, оцените раздачу и оставьте свои комментарий, если Вы скачали Корпоратив через торрент бесплатно! Внесите свою лепту в развитие PiratBit!
    Комментировать посты могут только пользователи прошедшие не сложную регистрацию
    Показать сообщения:    

    Корпоратив через торрент
    Скачать бесплатно Корпоратив
    Корпоратив скачать торрент
    Корпоратив смотреть онлайн
    Cкачать фильм Корпоратив бесплатно
    Корпоратив скачать торрент в хорошем качестве
    Корпоратив смотреть онлайн бесплатно в хорошем качестве


    Вы не можете начинать темы
    Вы не можете отвечать на сообщения
    Вы не можете редактировать свои сообщения
    Вы не можете удалять свои сообщения
    Вы не можете голосовать в опросах
    Вы не можете прикреплять файлы к сообщениям
    Вы можете скачивать файлы