1 сезон

1 сезон

iTunes

1

КиноПоиск HD

Кинопоиск HD

iTunes

13

1 сезон

RePack

30

Новинка

ВАЖНО

ИГРА 18+

pack

RePack

MK11
pack

Легкие деньги

RePack

jed

RePack

fifa19

RePack

RDR2

RePack

NEED FOR SPEED™ PAYBACK

4 сезон

9 сезон

Бесстыжие 9 сезон

Все сериалы

все сериалы на PB.wtf

RePack

FAR CRY 5
  
Magnet ссылка

Самый крутой / Top Dog (Мартин Кемп ) [2014, драма, криминал, BDRip 720p, Авторский (одноголосый) piratbit.pw

Самый крутой через торрент piratbit.pw

Размер: 4.28 GB | Добавлен: 6 лет 5 мес. назад | Торрент скачан:11 раз
Скачать  

09-11-2014 03:28 Самый крутой Скачать торрент  

Самый крутой / Top Dog


Год выпуска: 2014
Страна: Великобритания
Жанр:драма, криминал
Продолжительность:01:35:36
Перевод:Авторский (одноголосый)(Яроцкий)
Режиссер:Мартин Кемп

  • В ролях:

    Винсент Риган (Watson), Лео Грегори (Billy Evans), Риччи Харнетт (Mickey), Лейла Вонг (Jing), Лоррэйн Стэнли (Julie), Энтони Фаррелли (AC Hooligan / Club Punter), Том Дэвис (Cod), Ник Томас-Уэбстер (Police Officer), Сьюзен Пенхалигон (Sal), Ryan Barr, Райан Олива (Joe), Джордж Руссо (Graham Hawkins)

  • Описание:
    Билли Эванс является лидером отъявленных хулиганов, футбольных фанатов клуба «Тоттенхэм Хотспур». Билли откровенно наслаждается своей жизнью, считая, что он может быть выше закона. Одновременно он ведет жизнь простого обывателя, любит свою жену Саманту, заботится о ближних, готов выручить тетушку и дядю, попавших в неприятную историю с местным преступным авторитетом. Но когда Билли начинает путать его деятельность мелкого хулигана с преступным миром, в который он погружается быстро и безболезненно, это приводит к катастрофическим последствиям...

  • Мировая премьера:26 мая 2014

    Качество: BDRip 720p
    Формат:MKV
    Видео кодек: AVC
    Аудио кодек:AC3, DTS
    Видео: AVC, 1280x536 (2.40:1), 5200 kbps, 23,976 fps, 0,316 bpp
    Аудио №1: русский / AC3 / 5.1 / 48 kHz / 448 kbps / 16 bit ||
    Аудио №2: английский / DTS / 5.1 / 48 kHz / 755 kbps / 24 bit


    Код:

    General
    Unique ID                                : 234317407745673716126228049485600168270 (0xB047E42621F7EFA0A6B77104B820994E)
    Complete name                            : D:\Торенты\Samyj.krutoj.2014.x264.BDRip.(720p)-MediaClub.mkv
    Format                                   : Matroska
    Format version                           : Version 2
    File size                                : 4.28 GiB
    Duration                                 : 1h 35mn
    Overall bit rate                         : 6 414 Kbps
    Movie name                               : -=Released by Kortec for MediaClub=-
    Encoded date                             : UTC 2014-11-07 07:52:13
    Writing application                      : mkvmerge v4.0.0 ('The Stars were mine') built on Jun  6 2010 16:18:42
    Writing library                          : libebml v1.0.0 + libmatroska v1.0.0

    Video
    ID                                       : 1
    Format                                   : AVC
    Format/Info                              : Advanced Video Codec
    Format profile                           : High@L4.1
    Format settings, CABAC                   : Yes
    Format settings, ReFrames                : 9 frames
    Codec ID                                 : V_MPEG4/ISO/AVC
    Duration                                 : 1h 35mn
    Bit rate                                 : 5 200 Kbps
    Width                                    : 1 280 pixels
    Height                                   : 536 pixels
    Display aspect ratio                     : 2.40:1
    Frame rate                               : 23.976 fps
    Color space                              : YUV
    Chroma subsampling                       : 4:2:0
    Bit depth                                : 8 bits
    Scan type                                : Progressive
    Bits/(Pixel*Frame)                       : 0.316
    Stream size                              : 3.40 GiB (79%)
    Writing library                          : x264 core 130 r2273 b3065e6
    Encoding settings                        : cabac=1 / ref=9 / deblock=1:-2:-2 / analyse=0x3:0x133 / me=umh / subme=11 / psy=1 / psy_rd=1.00:0.10 / mixed_ref=1 / me_range=32 / chroma_me=1 / trellis=2 / 8x8dct=1 / cqm=0 / deadzone=21,11 / fast_pskip=0 / chroma_qp_offset=-3 / threads=6 / lookahead_threads=1 / sliced_threads=0 / nr=0 / decimate=0 / interlaced=0 / bluray_compat=0 / constrained_intra=0 / bframes=8 / b_pyramid=2 / b_adapt=2 / b_bias=0 / direct=3 / weightb=1 / open_gop=0 / weightp=2 / keyint=240 / keyint_min=23 / scenecut=40 / intra_refresh=0 / rc=2pass / mbtree=0 / bitrate=5200 / ratetol=1.0 / qcomp=0.60 / qpmin=0 / qpmax=69 / qpstep=4 / cplxblur=20.0 / qblur=0.5 / ip_ratio=1.40 / pb_ratio=1.30 / aq=1:0.80
    Language                                 : English
    Default                                  : No
    Forced                                   : No

    Audio #1
    ID                                       : 2
    Format                                   : AC-3
    Format/Info                              : Audio Coding 3
    Mode extension                           : CM (complete main)
    Codec ID                                 : A_AC3
    Duration                                 : 1h 35mn
    Bit rate mode                            : Constant
    Bit rate                                 : 448 Kbps
    Channel(s)                               : 6 channels
    Channel positions                        : Front: L C R, Side: L R, LFE
    Sampling rate                            : 48.0 KHz
    Bit depth                                : 16 bits
    Compression mode                         : Lossy
    Stream size                              : 306 MiB (7%)
    Language                                 : Russian
    Default                                  : Yes
    Forced                                   : Yes

    Audio #2
    ID                                       : 3
    Format                                   : DTS
    Format/Info                              : Digital Theater Systems
    Codec ID                                 : A_DTS
    Duration                                 : 1h 35mn
    Bit rate mode                            : Constant
    Bit rate                                 : 755 Kbps
    Channel(s)                               : 6 channels
    Channel positions                        : Front: L C R, Side: L R, LFE
    Sampling rate                            : 48.0 KHz
    Bit depth                                : 24 bits
    Compression mode                         : Lossy
    Stream size                              : 516 MiB (12%)
    Language                                 : English
    Default                                  : No
    Forced                                   : No

    Скриншоты:

    Каталог Новинок (Фильмы-трейлеры, Игры, Сериалы, Мультфильмы)

    © Оформление by Raven
    piratbit.pw



  • Скачать Самый крутой через торрент http://i66.fastpic.ru/big/2014/1109/fe/4059abcf966de8b03f00f18354d53dfe.jpg Скачать фильм Самый крутой через торрент бесплантно в хорошем качестве Описание:Билли Эванс является лидером отъявленных хулиганов, футбольных фанатов клуба «Тоттенхэм Хотспур». Билли откровенно наслаждается ... 5.5 10 2
    Торрент: Зарегистрирован [2014-11-09 03:28] · скачан: 11 раз
    Статус: √ проверено
    Размер: 4.28 GB
    Как cкачать? Как скачать Самый крутой через торрент | UTorrent

    % Раздел Тема Автор DL S | L
    Фильмы с авторской озвучкой [ 1.46 GB ] Самый крутой / Top Dog [2014 HDRip Авторский одноголосый "М. Яроцкий"] coc900 Скачать
    1 | 0
    Фильмы 2014 (Звук TS, Cam, VO, DVO) [ 2.03 GB ] Самый крутой / Top Dog [2014 DVDRip Любительский одноголосый] coc900 Скачать
    1 | 0

    28-11-2019 20:33  

    Отключить всю рекламу на сайте

      Дорогой пользователь! Огромная просьба, поблагодарите релизера, оцените раздачу и оставьте свои комментарий, если Вы скачали Самый крутой через торрент бесплатно! Внесите свою лепту в развитие PiratBit!
      Комментировать посты могут только пользователи прошедшие не сложную регистрацию
      Показать сообщения:    

      Самый крутой через торрент
      Скачать бесплатно Самый крутой
      Самый крутой скачать торрент
      Самый крутой смотреть онлайн
      Cкачать фильм Самый крутой бесплатно
      Самый крутой скачать торрент в хорошем качестве
      Самый крутой смотреть онлайн бесплатно в хорошем качестве


      Вы не можете начинать темы
      Вы не можете отвечать на сообщения
      Вы не можете редактировать свои сообщения
      Вы не можете удалять свои сообщения
      Вы не можете голосовать в опросах
      Вы не можете прикреплять файлы к сообщениям
      Вы можете скачивать файлы