Ссылка на приватное зеркало нашего сайта всего за 1$. Внимание количество ограничено!!!

2 сезон

iTunes

1 сезон

1

iTunes

iTunes

iTunes

1 сезон

RePack

30

ИГРА 18+

pack

ВАЖНО

!!Акция!!

Alien_RageХит недели

RePack

MK11
pack

Забери бонус

RePack

jed

!!Акция!!

Alien_Rage

RePack

fifa19

RePack

Assassins Creed: Odyssey

RePack

NEED FOR SPEED™ PAYBACK

4 сезон

9 сезон

Бесстыжие 9 сезон

Все сериалы

все сериалы на PB.wtf

RePack

FAR CRY 5
  

Последняя оргия третьего рейха / Ultima orgia del III Reich (Cesare Canevari) [1977 г., Триллер, Драма, DVDRip, Профессиональный одноголосый] piratbit.pw

Последняя оргия третьего рейха через торрент piratbit.pw

Размер: 1.46 GB | Добавлен: 5 лет 11 мес. назад | Торрент скачан:272 раза
Скачать  

07-11-2014 17:38 Последняя оргия третьего рейха Скачать торрент  

Последняя оргия третьего рейха / Ultima orgia del III Reich
Год выпуска: 1977
Страна: Италия
Жанр: Триллер, Драма
Продолжительность: 01:31:53
Перевод: Профессиональный одноголосый
Субтитры: Отсутствуют

Режиссер: Cesare Canevari
Студия: CINE LU.CE.Milan

В ролях: Adriano Micantoni, Даниела Поджи, Maristella Greco, Фулвио Риччарди, Antiniska Nemour, Катерина Барберо, Domenico Seren Gay, Vittorio Joderi, Пьетро Боске, Пьетро Виаль

Описание: Лиза Кохен (Lise Cohen) попадает в специальный концлагерь для молодых евреек, который превращен в публичный дом для садистских развлечений офицеров гестапо. Все в лагере подчинено железной руке коменданта Сталкера (Starker) и его любовнице Альме (Alma). Сталкер раздражен непокорностью Лизы и подергает ее жестоким истязаниям, пытаясь сломить ее волю. Все его попытки безуспешны, правда, вскоре девушка сама начинает играть по правилам Сталкера. Но теперь, хотя ее жизнь и стала не в пример легче, она не забыла прошлые издевательства и оскорбления и терпеливо ждет момента, чтобы отомстить.

Качество: DVDRip
Формат: AVI
Видео кодек: XviD
Аудио кодек: AC3
Видео: 704x400, 25.00fps, 2078 Kbps
Аудио#1: Dolby AC3 48000Hz stereo 192kbps























General
Complete name : H:\КЛАССИКА\Последняя оргия третьего рейха.avi
Format : AVI
Format/Info : Audio Video Interleave
File size : 1.46 GiB
Duration : 1h 31mn
Overall bit rate : 2 280 Kbps
Writing application : VirtualDubMod 1.5.10.3 | www.virtualdub-fr.org || (build 2550/release)
Writing library : VirtualDubMod build 2550/release

Video
ID : 0
Format : MPEG-4 Visual
Format profile : Advanced Simple@L5
Format settings, BVOP : Yes
Format settings, QPel : No
Format settings, GMC : No warppoints
Format settings, Matrix : Default (MPEG)
Codec ID : XVID
Codec ID/Hint : XviD
Duration : 1h 31mn
Bit rate : 2 078 Kbps
Width : 704 pixels
Height : 400 pixels
Display aspect ratio : 16:9
Frame rate : 25.000 fps
Color space : YUV
Chroma subsampling : 4:2:0
Bit depth : 8 bits
Scan type : Progressive
Compression mode : Lossy
Bits/(Pixel*Frame) : 0.295
Stream size : 1.33 GiB (91%)
Writing library : XviD 58

Audio
ID : 1
Format : AC-3
Format/Info : Audio Coding 3
Mode extension : CM (complete main)
Format settings, Endianness : Big
Codec ID : 2000
Duration : 1h 31mn
Bit rate mode : Constant
Bit rate : 192 Kbps
Channel(s) : 2 channels
Channel positions : Front: L R
Sampling rate : 48.0 KHz
Bit depth : 16 bits
Compression mode : Lossy
Stream size : 126 MiB (8%)
Alignment : Split accross interleaves
Interleave, duration : 40 ms (1.00 video frame)
Interleave, preload duration : 500 ms

piratbit.pw



Скачать Последняя оргия третьего рейха через торрент http://i67.fastpic.ru/big/2014/1107/f0/a63ed585e8dcee37f811166c9c429df0.jpg Скачать фильм Последняя оргия третьего рейха через торрент бесплантно в хорошем качестве Описание: Лиза Кохен (Lise Cohen) попадает в специальный концлагерь для молодых евреек, который превращен в публичный дом для садистских ... 9.3 10 12
Торрент: Зарегистрирован [2014-11-07 17:38] · скачан: 272 раз
Статус: √ проверено
Размер: 1.46 GB
Как cкачать? Как скачать Последняя оргия третьего рейха через торрент | qTorrent

% Раздел Тема Автор DL S | L
Фильмы до 2000 г. [ 1.46 GB ] Последняя оргия третьего рейха / Последняя оргия Гестапо / L'ultima orgia del III Reich / Gestapo's Last Orgy / Caligula Reincarnated as Hitler [1977 военный DVDRip] AVO -=Cherry=- Скачать
1 | 0

28-11-2019 20:33  

Отключить всю рекламу на сайте

07-11-2014 17:39 Последняя оргия третьего рейха Скачать торрент  

Не к порно не к эротике фильм отношения не имеет. Военная драма.
Приятного просмотра!!!!piratbit.pw



07-11-2014 18:30 Последняя оргия третьего рейха Скачать торрент  

Спасибо!Напоминает фильм"Эльза-девушка из СС",тоже тех годов,их фильмов штук 5скриншот  или Частные владения СС / Private House of the SS (1977) скриншот   Армия Гретхен / Призывница Гретхен / Eine Armee Gretchen (1973)скриншот  piratbit.pw





Последний раз редактировалось: lug30 (2014-11-07 18:41), всего редактировалось 1 раз

07-11-2014 18:41 Последняя оргия третьего рейха Скачать торрент  

lug30 писал(а):

[qpost=undefined]Спасибо!Напоминает фильм"Эльза-девушка из СС",тоже тех годов,их фильмов штук 5

Есть схожесть, но не много нето, хотя "атмосфера" фильмов очень схожи.
Здесь их заставляют делать это, а там их этому учили.
------------------------------------------------------------------------------------------
Кстати могу все что написал lug 30 выложить в хорошем качестве и с переводом.piratbit.pw





Последний раз редактировалось: Magnat (2014-11-07 18:45), всего редактировалось 2 раз(а)

07-11-2014 18:42 Последняя оргия третьего рейха Скачать торрент  

вечерком заценю,еще раз спасибоpiratbit.pw



07-11-2014 18:47 Последняя оргия третьего рейха Скачать торрент  

lug30 писал(а):

[qpost=undefined]вечерком заценю,еще раз спасибо

Всегда рад угодить хорошим фильмом. ПОЖАЛУЙСТА.piratbit.pw



    Дорогой пользователь! Огромная просьба, поблагодарите релизера, оцените раздачу и оставьте свои комментарий, если Вы скачали Последняя оргия третьего рейха через торрент бесплатно! Внесите свою лепту в развитие PiratBit!
    Комментировать посты могут только пользователи прошедшие не сложную регистрацию
    Показать сообщения:    

    Последняя оргия третьего рейха через торрент
    Скачать бесплатно Последняя оргия третьего рейха
    Последняя оргия третьего рейха скачать торрент
    Последняя оргия третьего рейха смотреть онлайн
    Cкачать фильм Последняя оргия третьего рейха бесплатно
    Последняя оргия третьего рейха скачать торрент в хорошем качестве
    Последняя оргия третьего рейха смотреть онлайн бесплатно в хорошем качестве


    Вы не можете начинать темы
    Вы не можете отвечать на сообщения
    Вы не можете редактировать свои сообщения
    Вы не можете удалять свои сообщения
    Вы не можете голосовать в опросах
    Вы не можете прикреплять файлы к сообщениям
    Вы можете скачивать файлы