1 сезон

1 сезон

iTunes

1

КиноПоиск HD

Кинопоиск HD

iTunes

13

1 сезон

RePack

30

Ultimate

ВАЖНО

ИГРА 18+

pack

RePack

MK11
pack

Легкие деньги

RePack

jed

RePack

fifa19

RePack

RDR2

RePack

NEED FOR SPEED™ PAYBACK

4 сезон

9 сезон

Бесстыжие 9 сезон

Все сериалы

все сериалы на PB.wtf

RePack

FAR CRY 5
  
Magnet ссылка

Я - вратарь / Der Goalie bin ig (Сабина Босс) [2014 г., Драма, мелодрама, HDRip-AVC] AVO piratbit.pw

Я - вратарь через торрент piratbit.pw

Размер: 2.14 GB | Добавлен: 6 лет 5 мес. назад | Торрент скачан:32 раза
Скачать  

07-11-2014 12:58 Я - вратарь Скачать торрент  

Я - вратарь / Der Goalie bin igГод выпуска: 2014
Страна: Швейцария C-Films AG, Carac Films
Жанр: Драма, мелодрама
Продолжительность: 01:32:55
Перевод: Авторский одноголосый
Озвучка Евгения Гаевского по переводу kon2011, доступна благодаря: mihaildns и будулайроманову
Оплата сборки дороги - mihey10
Работа со звуком - Переводман
Рип - mihaildns

Субтитры: Русские, английские

Режиссер: Сабина Босс
Продюссер: Майкл Стайгер, Анита Вассер, Тереза Шерер-Коллбрюннер
Сценарий: Сабина Босс, Жасмин Хоч

Премьера в мире: 6 февраля 2014 В ролях: Михаэль Нойеншвандер, Соня Рисен, Маркус Сигнер, Паскаль Улли

Описание: Голи был только что выпущен из тюрьмы, где провел год, держа рот на замке, выгораживая своего лучшего друга Ули. Выйдя на свободу Голи возвращается в свой родной городок, где хочет начать новую жизнь, но не всё так просто, как бы не хотелось всё забыть, ему придется столкнуться лицом к лицу со своим прошлым…

Качество: HDRip-AVC
Формат: MKV
Видео кодек: MPEG4-AVC
Аудио кодек: AC3
Видео: MPEG4 Video (H264), 1024x432, 23.976fps, 2 401 Kbps
Аудио#1: Dolby AC3, 48000Hz, 6ch, 448 Kbps [Russian, Гаевский по переводу kon2011]
Аудио#2: Dolby AC3, 48000Hz, 6ch, 448 Kbps [German]
Subtitle#1: UTF-8 [Russian, kon2011]
Subtitle#2: UTF-8 [English]

Релиз от: mihaildns

Скриншоты:
скриншот  скриншот  скриншот  скриншот  




General
Unique ID : 227892761942290787689813898006453105648 (0xAB728CA7AA71681D80F3016BF20D33F0)
Complete name : E:\01 02 sicret2\Der Goalie bin ig.2014.HDRip-AVC.VO.Gaevsky.mkv
Format : Matroska
Format version : Version 2
File size : 2.14 GiB
Duration : 1h 32mn
Overall bit rate : 3 299 Kbps
Movie name : Я - вратарь / Der Goalie bin ig (2014 г)
Encoded date : UTC 2014-11-07 05:56:45
Writing application : mkvmerge v3.0.0 ('Hang up your Hang-Ups') built on Dec 12 2009 15:20:35
Writing library : libebml v0.7.9 + libmatroska v0.8.1

Video
ID : 1
Format : AVC
Format/Info : Advanced Video Codec
Format profile : High@L4.1
Format settings, CABAC : Yes
Format settings, ReFrames : 7 frames
Codec ID : V_MPEG4/ISO/AVC
Duration : 1h 32mn
Bit rate : 2 401 Kbps
Width : 1 024 pixels
Height : 432 pixels
Display aspect ratio : 2.40:1
Frame rate mode : Constant
Frame rate : 23.976 fps
Color space : YUV
Chroma subsampling : 4:2:0
Bit depth : 8 bits
Scan type : Progressive
Bits/(Pixel*Frame) : 0.226
Stream size : 1.52 GiB (71%)
Title : Rip by mihaildns
Writing library : x264 core 125 r2208 d9d2288
Encoding settings : cabac=1 / ref=7 / deblock=1:-3:-3 / analyse=0x3:0x111 / me=umh / subme=9 / psy=1 / psy_rd=1.00:0.00 / mixed_ref=1 / me_range=48 / chroma_me=1 / trellis=2 / 8x8dct=1 / cqm=0 / deadzone=21,11 / fast_pskip=0 / chroma_qp_offset=-2 / threads=3 / lookahead_threads=1 / sliced_threads=0 / nr=0 / decimate=1 / interlaced=0 / bluray_compat=0 / constrained_intra=0 / bframes=9 / b_pyramid=2 / b_adapt=2 / b_bias=0 / direct=3 / weightb=1 / open_gop=0 / weightp=2 / keyint=250 / keyint_min=23 / scenecut=40 / intra_refresh=0 / rc_lookahead=50 / rc=2pass / mbtree=1 / bitrate=2401 / ratetol=1.0 / qcomp=0.60 / qpmin=0 / qpmax=69 / qpstep=4 / cplxblur=20.0 / qblur=0.5 / ip_ratio=1.40 / aq=1:1.10
Default : No
Forced : No

Audio #1
ID : 2
Format : AC-3
Format/Info : Audio Coding 3
Mode extension : CM (complete main)
Format settings, Endianness : Big
Codec ID : A_AC3
Duration : 1h 32mn
Bit rate mode : Constant
Bit rate : 448 Kbps
Channel(s) : 6 channels
Channel positions : Front: L C R, Side: L R, LFE
Sampling rate : 48.0 KHz
Bit depth : 16 bits
Compression mode : Lossy
Stream size : 298 MiB (14%)
Title : Гаевский по переводу kon2011
Language : Russian
Default : Yes
Forced : No

Audio #2
ID : 3
Format : AC-3
Format/Info : Audio Coding 3
Mode extension : CM (complete main)
Format settings, Endianness : Big
Codec ID : A_AC3
Duration : 1h 32mn
Bit rate mode : Constant
Bit rate : 448 Kbps
Channel(s) : 6 channels
Channel positions : Front: L C R, Side: L R, LFE
Sampling rate : 48.0 KHz
Bit depth : 16 bits
Compression mode : Lossy
Stream size : 298 MiB (14%)
Language : German
Default : No
Forced : No

Text #1
ID : 4
Format : UTF-8
Codec ID : S_TEXT/UTF8
Codec ID/Info : UTF-8 Plain Text
Title : kon2011
Language : Russian
Default : No
Forced : No

Text #2
ID : 5
Format : UTF-8
Codec ID : S_TEXT/UTF8
Codec ID/Info : UTF-8 Plain Text
Language : English
Default : No
Forced : No

piratbit.pw



Скачать Я - вратарь через торрент https://pic.kartinco.top/img/2014-11/07/ztg690te3mq20q4a9kbf739gn.jpg Скачать фильм Я - вратарь через торрент бесплантно в хорошем качестве Описание: Голи был только что выпущен из тюрьмы, где провел год, держа рот на замке, выгораживая своего лучшего друга Ули. Выйдя на свободу ... 10 10 2
Торрент: Зарегистрирован [2014-11-07 12:58] · скачан: 32 раз
Статус: √ проверено
Размер: 2.14 GB
Как cкачать? Как скачать Я - вратарь через торрент | UTorrent

28-11-2019 20:33  

Отключить всю рекламу на сайте

    Дорогой пользователь! Огромная просьба, поблагодарите релизера, оцените раздачу и оставьте свои комментарий, если Вы скачали Я - вратарь через торрент бесплатно! Внесите свою лепту в развитие PiratBit!
    Комментировать посты могут только пользователи прошедшие не сложную регистрацию
    Показать сообщения:    

    Я - вратарь через торрент
    Скачать бесплатно Я - вратарь
    Я - вратарь скачать торрент
    Я - вратарь смотреть онлайн
    Cкачать фильм Я - вратарь бесплатно
    Я - вратарь скачать торрент в хорошем качестве
    Я - вратарь смотреть онлайн бесплатно в хорошем качестве


    Вы не можете начинать темы
    Вы не можете отвечать на сообщения
    Вы не можете редактировать свои сообщения
    Вы не можете удалять свои сообщения
    Вы не можете голосовать в опросах
    Вы не можете прикреплять файлы к сообщениям
    Вы можете скачивать файлы