1 сезон

3 сезон

iTunes

1

iTunes

DUB Netflix

iTunes

13

1 сезон

RePack

30

Deluxe

pack

Легкие деньги

ВАЖНО

ИГРА 18+

pack

RePack

MK11

RePack

jed

RePack

fifa19

RePack

RDR2

RePack

NEED FOR SPEED™ PAYBACK

4 сезон

9 сезон

Бесстыжие 9 сезон

Все сериалы

все сериалы на PB.wtf

RePack

FAR CRY 5

Anonymous, доброе утро, мы не успеваем до 1 числа собрать деньги на оплату серверов, помогите нам пожалуйста в это трудное время. В качестве благодарности мы отключим Вам всю рекламу на сайте (укажите свой ник в строку Ваше имя)!

×
  
Magnet ссылка

Азбука смерти 2 / ABCs of Death 2 ( Хуан Мартинез Морено, Е. Л. Кэтц, Джулиан Бэррэтт, Жюльен Мори, Марвин Крен, Аарон Кешалес, Родни Ашер, Стивен Костански ) [2014, ужасы, комедия, WEB-DLRip, Любительский (двухголосый)[den904, DeadSno] piratbit.pw

Азбука смерти 2 через торрент piratbit.pw

Размер: 1.36 GB | Добавлен: 6 лет 7 мес. назад | Торрент скачан:403 раза
Скачать  

07-11-2014 06:25 Азбука смерти 2 Скачать торрент  

Азбука смерти 2 / ABCs of Death 2


Год выпуска: 2014
Страна: США, Новая Зеландия, Канада, Израиль, Япония
Жанр:ужасы, комедия
Продолжительность:02:02:18
Перевод:Любительский (двухголосый)[den904, DeadSno]
Режиссер: Хуан Мартинез Морено, Е. Л. Кэтц, Джулиан Бэррэтт, Жюльен Мори, Марвин Крен, Аарон Кешалес, Родни Ашер, Стивен Костански

  • В ролях:

    Мартина Гарсия, Беатрис Даль (Grandmother (segment 'X is for Xylophone')), Лоуренс Р. Харви (wanker (segment 'T' / 'Wanker')), Тристан Риск, Энди Найман, С. Эрнст Харт (Porn Guy #1 (segment 'T is for Torture Porn')), Алан МакКенна (Bob (segment Y)), Йен Вирго (Fletcher (segment)), Лорен Молина (Bride), Виктория Брум (Miriam (segment Y)), Мигель Анхель Муньос, Бенжамин Маккаби (Arnold the Muscle)

  • Описание:
    Приготовьтесь к продолжению убийств по алфавиту! 26 новых режиссёров и ещё 26 смертей на экране заставят вас трепетать от ужаса и обагрят ваши лица кровью.

  • Мировая премьера:18 сентября 2014

    Качество: WEB-DLRip
    Формат:AVI
    Видео кодек: XviD
    Аудио кодек:AC3
    Видео: XviD, 720x400 (16:9), 1199 kbps, 23,976 fps, 0,174 bpp
    Аудио: AC3 / 5.1 / 48 kHz / 384 kbps / 16 bit


    Код:

    General
    Complete name                            : D:\Торенты\ABCs.of.Death.2.2014.WEB-DLRip.1400MB.avi
    Format                                   : AVI
    Format/Info                              : Audio Video Interleave
    File size                                : 1.36 GiB
    Duration                                 : 2h 2mn
    Overall bit rate                         : 1 593 Kbps
    Writing application                      : VirtualDubMod 1.5.10.2 (build 2542/release)
    Writing library                          : VirtualDubMod build 2542/release

    Video
    ID                                       : 0
    Format                                   : MPEG-4 Visual
    Format profile                           : Advanced Simple@L5
    Format settings, BVOP                    : 2
    Format settings, QPel                    : No
    Format settings, GMC                     : No warppoints
    Format settings, Matrix                  : Default (H.263)
    Muxing mode                              : Packed bitstream
    Codec ID                                 : XVID
    Codec ID/Hint                            : XviD
    Duration                                 : 2h 2mn
    Bit rate                                 : 1 199 Kbps
    Width                                    : 720 pixels
    Height                                   : 400 pixels
    Display aspect ratio                     : 16:9
    Frame rate                               : 23.976 fps
    Color space                              : YUV
    Chroma subsampling                       : 4:2:0
    Bit depth                                : 8 bits
    Scan type                                : Progressive
    Compression mode                         : Lossy
    Bits/(Pixel*Frame)                       : 0.174
    Stream size                              : 1.02 GiB (75%)
    Writing library                          : XviD 65

    Audio
    ID                                       : 1
    Format                                   : AC-3
    Format/Info                              : Audio Coding 3
    Mode extension                           : CM (complete main)
    Codec ID                                 : 2000
    Duration                                 : 2h 2mn
    Bit rate mode                            : Constant
    Bit rate                                 : 384 Kbps
    Channel(s)                               : 6 channels
    Channel positions                        : Front: L C R, Side: L R, LFE
    Sampling rate                            : 48.0 KHz
    Bit depth                                : 16 bits
    Compression mode                         : Lossy
    Stream size                              : 336 MiB (24%)
    Alignment                                : Split accross interleaves
    Interleave, duration                     : 42 ms (1.00 video frame)
    Interleave, preload duration             : 500 ms

    Скриншоты:



    Срочно! Нужна помощь!


    © Оформление by Ravenpiratbit.pw



  • Скачать Азбука смерти 2 через торрент http://i67.fastpic.ru/big/2014/1107/21/d9727fa3e5e81d5ae37653f9a499b621.jpg Скачать фильм Азбука смерти 2 через торрент бесплантно в хорошем качестве Описание:Приготовьтесь к продолжению убийств по алфавиту! 26 новых режиссёров и ещё 26 смертей на экране заставят вас трепетать от ужаса и ... 9.6 10 10
    Торрент: Зарегистрирован [2014-11-07 06:25] · скачан: 403 раз
    Статус: T временная
    Размер: 1.36 GB
    Как cкачать? Как скачать Азбука смерти 2 через торрент | UTorrent

    % Раздел Тема Автор DL S | L
    T Фильмы [HD 720p, 1080p] (Хороший звук DUB, MVO) [ 5.77 GB ] Азбука смерти 2 / The ABCs of Death 2 [2014 BDRip 720p Любительский [den904 DeadSno] Ворон Скачать
    1 | 0
    T Фильмы 2014 (Звук TS, Cam, VO, DVO) [ 2.06 GB ] Азбука смерти 2 / The ABCs of Death 2 [2014 HDRip Любительский [den904 DeadSno] Ворон Скачать
    1 | 0
    T Фильмы (WEB-DL 720p, 1080p) [ 3.97 GB ] Азбука смерти 2 / ABCs of Death 2 [2014 WEB-DL 720p Любительский [den904 DeadSno] Ворон Скачать
    1 | 0
    Арт-хаус и авторское кино [ 2.19 GB ] Азбука смерти / The ABCs of Death [2012 ВDRip] 2.19 Гб diletant Скачать
    1 | 0

    28-11-2019 20:33  

    Отключить всю рекламу на сайте

    07-11-2014 07:40 Азбука смерти 2 Скачать торрент  

    Спасибо, посмотрю с удовольствием сиквел жесткого трешачка.)piratbit.pw



    08-11-2014 13:22 Азбука смерти 2 Скачать торрент  

    3 -ий скрин интересный, надо качнуть)))piratbit.pw



      Дорогой пользователь! Огромная просьба, поблагодарите релизера, оцените раздачу и оставьте свои комментарий, если Вы скачали Азбука смерти 2 через торрент бесплатно! Внесите свою лепту в развитие PiratBit!
      Комментировать посты могут только пользователи прошедшие не сложную регистрацию
      Показать сообщения:    

      Азбука смерти 2 через торрент
      Скачать бесплатно Азбука смерти 2
      Азбука смерти 2 скачать торрент
      Азбука смерти 2 смотреть онлайн
      Cкачать фильм Азбука смерти 2 бесплатно
      Азбука смерти 2 скачать торрент в хорошем качестве
      Азбука смерти 2 смотреть онлайн бесплатно в хорошем качестве


      Вы не можете начинать темы
      Вы не можете отвечать на сообщения
      Вы не можете редактировать свои сообщения
      Вы не можете удалять свои сообщения
      Вы не можете голосовать в опросах
      Вы не можете прикреплять файлы к сообщениям
      Вы можете скачивать файлы