1 сезон

3 сезон

iTunes

1

iTunes

DUB Netflix

iTunes

13

1 сезон

RePack

30

Deluxe

pack

Легкие деньги

ВАЖНО

ИГРА 18+

pack

RePack

MK11

RePack

jed

RePack

fifa19

RePack

RDR2

RePack

NEED FOR SPEED™ PAYBACK

4 сезон

9 сезон

Бесстыжие 9 сезон

Все сериалы

все сериалы на PB.wtf

RePack

FAR CRY 5

Anonymous, доброй ночи, мы не успеваем до 1 числа собрать деньги на оплату серверов, помогите нам пожалуйста в это трудное время. В качестве благодарности мы отключим Вам всю рекламу на сайте (укажите свой ник в строку Ваше имя)!

×
  
Magnet ссылка

Джинн / Jinn (Аджмал Захир Ахмад ) [2014, триллер, HDRip, Любительский (одноголосый)[Васька Куролесов] piratbit.pw

Джинн через торрент piratbit.pw

Размер: 1.44 GB | Добавлен: 6 лет 7 мес. назад | Торрент скачан:911 раз
Скачать  

06-11-2014 12:07 Джинн Скачать торрент  


Джинн / Jinn


Год выпуска: 2014
Страна:США
Жанр:триллер
Продолжительность: 01:37:11
Перевод:Любительский (одноголосый) [Васька Куролесов]
Режиссер:Аджмал Захир Ахмад
В ролях:

Серинда Свон (Jasmine), Рэй Парк (Gabriel), Уильям Этертон (Father Westhoff), Сибулла Дин (Beautiful Girl), Фаран Таир (Ali), Амин Наземзадех (Shawn), Миа Гович (Mrs. Walker), Эмбер Вилан (Shawn's Mother), Уолтер Фелан (The Jinn), Дэнни Муни (Head Guard of the Asylum), Шон Пол Пичинино (Bobby - Asylum Attendant), Эли Бардха (Coulter)
  • Описание:
    Шон - автомобильный дизайнер, наслаждается идиллической жизнью со своей женой Жасмин. Но однажды он получает загадочное сообщение, которое предупреждает его о надвигающейся опасности и о проклятье, которое преследует его семью из поколения в поколение...


    Качество:HDRip
    Формат:AVI
    Видео кодек: XviD
    Аудио кодек:AC3
    Видео: XviD, 720x304 (2.35:1), 1723 kbps, 24 fps, 0,328 bpp
    Аудио №1: AC3 / 2.0 / 48 kHz / 192 kbps / Russian
    Аудио №2: AC3 / 2.0 / 48 kHz / 192 kbps / English

    Код:

    General
    Complete name                            : D:\Торенты\Jinn.2014.L1.HDRip.avi
    Format                                   : AVI
    Format/Info                              : Audio Video Interleave
    File size                                : 1.44 GiB
    Duration                                 : 1h 37mn
    Overall bit rate                         : 2 121 Kbps
    Writing application                      : VirtualDubMod 1.5.10.3 | www.virtualdub-fr.org || (build 2550/release)
    Writing library                          : VirtualDubMod build 2550/release

    Video
    ID                                       : 0
    Format                                   : MPEG-4 Visual
    Format profile                           : Advanced Simple@L5
    Format settings, BVOP                    : 1
    Format settings, QPel                    : No
    Format settings, GMC                     : No warppoints
    Format settings, Matrix                  : Custom
    Codec ID                                 : XVID
    Codec ID/Hint                            : XviD
    Duration                                 : 1h 37mn
    Bit rate                                 : 1 723 Kbps
    Width                                    : 720 pixels
    Height                                   : 304 pixels
    Display aspect ratio                     : 2.35:1
    Frame rate                               : 24.000 fps
    Color space                              : YUV
    Chroma subsampling                       : 4:2:0
    Bit depth                                : 8 bits
    Scan type                                : Progressive
    Compression mode                         : Lossy
    Bits/(Pixel*Frame)                       : 0.328
    Stream size                              : 1.17 GiB (81%)
    Writing library                          : XviD 73

    Audio #1
    ID                                       : 1
    Format                                   : AC-3
    Format/Info                              : Audio Coding 3
    Mode extension                           : CM (complete main)
    Codec ID                                 : 2000
    Duration                                 : 1h 37mn
    Bit rate mode                            : Constant
    Bit rate                                 : 192 Kbps
    Channel(s)                               : 2 channels
    Channel positions                        : Front: L R
    Sampling rate                            : 48.0 KHz
    Bit depth                                : 16 bits
    Compression mode                         : Lossy
    Stream size                              : 133 MiB (9%)
    Alignment                                : Split accross interleaves
    Interleave, duration                     : 42 ms (1.00 video frame)
    Interleave, preload duration             : 500 ms

    Audio #2
    ID                                       : 2
    Format                                   : AC-3
    Format/Info                              : Audio Coding 3
    Mode extension                           : CM (complete main)
    Codec ID                                 : 2000
    Duration                                 : 1h 37mn
    Bit rate mode                            : Constant
    Bit rate                                 : 192 Kbps
    Channel(s)                               : 2 channels
    Channel positions                        : Front: L R
    Sampling rate                            : 48.0 KHz
    Bit depth                                : 16 bits
    Compression mode                         : Lossy
    Stream size                              : 133 MiB (9%)
    Alignment                                : Split accross interleaves
    Interleave, duration                     : 42 ms (1.00 video frame)
    Interleave, preload duration             : 500 ms


    Скриншоты:

    Срочно! Нужна помощь!


    © Оформление by Ravenpiratbit.pw



  • Скачать Джинн через торрент https://pic1.kartinco.top/images/61/ordi9.jpg Скачать фильм Джинн через торрент бесплантно в хорошем качестве Описание:Шон - автомобильный дизайнер, наслаждается идиллической жизнью со своей женой Жасмин. Но однажды он получает загадочное сообщение, ... 9.5 10 19
    Торрент: Зарегистрирован [2014-11-06 12:07] · скачан: 911 раз
    Статус: T временная
    Размер: 1.44 GB
    Как cкачать? Как скачать Джинн через торрент | UTorrent

    % Раздел Тема Автор DL S | L
    Фильмы с авторской озвучкой [ 5.05 GB ] Джинн / The Djinn [2021 WEB-DL 1080p] AVO [А.Важенин [BadBajo] bober100 Скачать
    3 | 0
    Фильмы [HD 720p, 1080p] (Хороший звук DUB, MVO) [ 9.23 GB ] Легенда о Билли Джин / The Legend of Billie Jean [1985 BDRip 1080p] [DVO] killermax2013 Скачать
    1 | 0
    Фильмы до 2000 г. [ 1.46 GB ] Легенда о Билли Джин / The Legend of Billie Jean [1985 BDRip] [DVO] killermax2013 Скачать
    1 | 0
    Зарубежные сериалы [ 7.58 GB ] Джинн / Jinn / Сезон: 1 / Серии: 1-5 из 5 [2019 WEBRip 1080p] MVO [Octopus] bober100 Скачать
    1 | 0
    Зарубежные сериалы [ 6.59 GB ] Джинн / Jinn / Сезон: 1 / Серии: 1-5 из 5 [2019 WEBRip 720p] MVO [Octopus] bober100 Скачать
    1 | 0
    Зарубежные сериалы [ 2.17 GB ] Джинн / Jinn / Сезон: 1 / Серии: 1-5 из 5 [2019 WEBRip] MVO [Octopus] bober100 Скачать
    1 | 0
    Зарубежные сериалы [ 8.32 GB ] Огнестрел / Shots Fired / Сезон: 1 / Серии 1-10 из 10 [2017 WEBRip-AVC WEB-DLRip-AVC] MVO [BaibaKo] GEKADOL Скачать
    1 | 0

    28-11-2019 20:33  

    Отключить всю рекламу на сайте

    06-11-2014 12:30 Джинн Скачать торрент  

    трейлер многообещающий. кто-нибудь видел? как фильм?piratbit.pw



    06-11-2014 13:18 Джинн Скачать торрент  

    тоже трейлер глянул. вроде положительное восприятие. стоит не стоит качать? ребят отпишите piratbit.pw



    06-11-2014 13:56 Джинн Скачать торрент  

    Хоспаде. Стоит - не стоит.. че за бред? Фильм весит полтора гига, скачал, посмотрел, удалил. Можно подумать у нас инет по талонам. Ну вот скажу я что фильм - гомно, а вы посмотрите и вам понравится - в итоге я козел. Или скажу что фильм - бомба, а вы посмотрите и скажете - уг. Итог аналогичен.
    Давно уже пора развить свой вкус, не опираясь на чужой.piratbit.pw



    06-11-2014 14:11 Джинн Скачать торрент  

    блин и придраться не к чему Хоспаде sarcastic лан, глянем карочpiratbit.pw



    06-11-2014 21:57 Джинн Скачать торрент  

    ну они хотя бы там не танцуют?piratbit.pw



    07-11-2014 14:13 Джинн Скачать торрент  

    dmitriyrams писал(а):

    Хоспаде. Стоит - не стоит.. че за бред? Фильм весит полтора гига, скачал, посмотрел, удалил. Можно подумать у нас инет по талонам. Ну вот скажу я что фильм - гомно, а вы посмотрите и вам понравится - в итоге я козел. Или скажу что фильм - бомба, а вы посмотрите и скажете - уг. Итог аналогичен.
    Давно уже пора развить свой вкус, не опираясь на чужой.

    dmitriyrams писал(а):

    Хоспаде. Стоит - не стоит.. че за бред? Фильм весит полтора гига, скачал, посмотрел, удалил. Можно подумать у нас инет по талонам. Ну вот скажу я что фильм - гомно, а вы посмотрите и вам понравится - в итоге я козел. Или скажу что фильм - бомба, а вы посмотрите и скажете - уг. Итог аналогичен.
    Давно уже пора развить свой вкус, не опираясь на чужой.

    +++++piratbit.pw



    08-11-2014 12:18 Джинн Скачать торрент  

    Развод на "Слабо" засчитан.
    После такой неприкрытой рекламы - неожиданно неплохой фильм.
    Черепашке-Леонардо биг сенькс!piratbit.pw



      Дорогой пользователь! Огромная просьба, поблагодарите релизера, оцените раздачу и оставьте свои комментарий, если Вы скачали Джинн через торрент бесплатно! Внесите свою лепту в развитие PiratBit!
      Комментировать посты могут только пользователи прошедшие не сложную регистрацию
      Показать сообщения:    

      Джинн через торрент
      Скачать бесплатно Джинн
      Джинн скачать торрент
      Джинн смотреть онлайн
      Cкачать фильм Джинн бесплатно
      Джинн скачать торрент в хорошем качестве
      Джинн смотреть онлайн бесплатно в хорошем качестве


      Вы не можете начинать темы
      Вы не можете отвечать на сообщения
      Вы не можете редактировать свои сообщения
      Вы не можете удалять свои сообщения
      Вы не можете голосовать в опросах
      Вы не можете прикреплять файлы к сообщениям
      Вы можете скачивать файлы