1 сезон

3 сезон

iTunes

1

iTunes

DUB Netflix

iTunes

13

1 сезон

RePack

30

Deluxe

pack

Легкие деньги

ВАЖНО

ИГРА 18+

pack

RePack

MK11

RePack

jed

RePack

fifa19

RePack

RDR2

RePack

NEED FOR SPEED™ PAYBACK

4 сезон

9 сезон

Бесстыжие 9 сезон

Все сериалы

все сериалы на PB.wtf

RePack

FAR CRY 5

Anonymous, добрый вечер, мы не успеваем до 1 числа собрать деньги на оплату серверов, помогите нам пожалуйста в это трудное время. В качестве благодарности мы отключим Вам всю рекламу на сайте (укажите свой ник в строку Ваше имя)!

×
  
Magnet ссылка

Асмодексия / Asmodexia (Marc Carreté ) [2014, ужасы, HDRip, Любительский (одноголосый) piratbit.pw

Асмодексия через торрент piratbit.pw

Размер: 1.37 GB | Добавлен: 6 лет 7 мес. назад | Торрент скачан:342 раза
Скачать  

05-11-2014 18:53 Асмодексия Скачать торрент  


Асмодексия / Asmodexia


Год выпуска: 2014
Страна:Испания
Жанр:ужасы
Продолжительность: 01:20:57
Перевод:Любительский (одноголосый) [Xixidok]
Режиссер:Marc Carreté
В ролях:

Альберт Баро (Jan), Марта Бельмонте (Inspectora Diana), Пепо Бласко (Jazz), Roser Bundó (Enfermera), Рамон Каналс (Dr. Wilson), Марина Дюран (Luna), Льюис Марко (Eloy de Palma), Ирена Монтала (Ona), Клаудия Понс (Alba), Мирейа Рос (Carmen), Хосе Гарсия Руис (Junkie), Сильвия Сабате (Enfermera Lola)
  • Описание:
    Элой де Пальма - пастор-экзорцист, который посещает вместе со своей внучкой Альбой самые темные уголки страны. Их миссия заключается в оказании помощи людям, одержимым злыми духами...


    Качество:HDRip
    Формат:AVI
    Видео кодек: XviD
    Аудио кодек:MP3
    Видео: XviD, 720x304 (2.35:1), 2220 kbps, 23,976 fps, 0,423 bpp
    Аудио: MP3 / 2.0 / 44 kHz / 192 kbps /

    Код:

    General
    Complete name                            : D:\Торенты\Asmodexia.2014.HDRip.1400mb.avi
    Format                                   : AVI
    Format/Info                              : Audio Video Interleave
    File size                                : 1.37 GiB
    Duration                                 : 1h 20mn
    Overall bit rate                         : 2 422 Kbps
    Writing application                      : VirtualDubModRus 1.5.10.2 (build 2542/release)
    Writing library                          : VirtualDubMod build 2542/release

    Video
    ID                                       : 0
    Format                                   : MPEG-4 Visual
    Format profile                           : Advanced Simple@L5
    Format settings, BVOP                    : 2
    Format settings, QPel                    : No
    Format settings, GMC                     : No warppoints
    Format settings, Matrix                  : Default (H.263)
    Muxing mode                              : Packed bitstream
    Codec ID                                 : XVID
    Codec ID/Hint                            : XviD
    Duration                                 : 1h 20mn
    Bit rate                                 : 2 220 Kbps
    Width                                    : 720 pixels
    Height                                   : 304 pixels
    Display aspect ratio                     : 2.35:1
    Frame rate                               : 23.976 fps
    Color space                              : YUV
    Chroma subsampling                       : 4:2:0
    Bit depth                                : 8 bits
    Scan type                                : Progressive
    Compression mode                         : Lossy
    Bits/(Pixel*Frame)                       : 0.423
    Stream size                              : 1.26 GiB (92%)
    Writing library                          : XviD 64

    Audio
    ID                                       : 1
    Format                                   : MPEG Audio
    Format version                           : Version 1
    Format profile                           : Layer 3
    Codec ID                                 : 55
    Codec ID/Hint                            : MP3
    Duration                                 : 1h 20mn
    Bit rate mode                            : Constant
    Bit rate                                 : 192 Kbps
    Channel(s)                               : 2 channels
    Sampling rate                            : 44.1 KHz
    Compression mode                         : Lossy
    Stream size                              : 111 MiB (8%)
    Alignment                                : Split accross interleaves
    Interleave, duration                     : 42 ms (1.00 video frame)
    Interleave, preload duration             : 500 ms


    Скриншоты:

    Срочно! Нужна помощь!


    © Оформление by Ravenpiratbit.pw



  • Скачать Асмодексия через торрент https://pic1.kartinco.top/images/61/ordi9.jpg Скачать фильм Асмодексия через торрент бесплантно в хорошем качестве Описание:Элой де Пальма - пастор-экзорцист, который посещает вместе со своей внучкой Альбой самые темные уголки страны. Их миссия ... 10 10 6
    Торрент: Зарегистрирован [2014-11-05 18:53] · скачан: 342 раз
    Статус: T временная
    Размер: 1.37 GB
    Как cкачать? Как скачать Асмодексия через торрент | UTorrent

    28-11-2019 20:33  

    Отключить всю рекламу на сайте

    03-02-2015 13:33 Асмодексия Скачать торрент  

    КАК ФИЛЬМЕЦ?piratbit.pw



      Дорогой пользователь! Огромная просьба, поблагодарите релизера, оцените раздачу и оставьте свои комментарий, если Вы скачали Асмодексия через торрент бесплатно! Внесите свою лепту в развитие PiratBit!
      Комментировать посты могут только пользователи прошедшие не сложную регистрацию
      Показать сообщения:    

      Асмодексия через торрент
      Скачать бесплатно Асмодексия
      Асмодексия скачать торрент
      Асмодексия смотреть онлайн
      Cкачать фильм Асмодексия бесплатно
      Асмодексия скачать торрент в хорошем качестве
      Асмодексия смотреть онлайн бесплатно в хорошем качестве


      Вы не можете начинать темы
      Вы не можете отвечать на сообщения
      Вы не можете редактировать свои сообщения
      Вы не можете удалять свои сообщения
      Вы не можете голосовать в опросах
      Вы не можете прикреплять файлы к сообщениям
      Вы можете скачивать файлы