2 сезон

iTunes

1 сезон

1

iTunes

iTunes

iTunes

1 сезон

RePack

30

ИГРА 18+

pack

ВАЖНО

!!Акция!!

Alien_RageХит недели

RePack

MK11
pack

Забери бонус

RePack

jed

!!Акция!!

Alien_Rage

RePack

fifa19

RePack

Assassins Creed: Odyssey

RePack

NEED FOR SPEED™ PAYBACK

4 сезон

9 сезон

Бесстыжие 9 сезон

Все сериалы

все сериалы на PB.wtf

RePack

FAR CRY 5
  

Лермонтов (Максим Беспалый) [2014 г., драма, биография, HDTVRip] piratbit.pw

Лермонтов через торрент piratbit.pw

Размер: 1.37 GB | Добавлен: 5 лет 11 мес. назад | Торрент скачан:767 раз
Скачать  

03-11-2014 09:07 Лермонтов Скачать торрент  

Лермонтов
Год выпуска: 2014
Страна: Россия
Жанр: драма, биография, историческая реконструкция
Продолжительность: 01:29:50
Язык: Русский

Режиссер: Максим Беспалый
Сценарий: Елена Сибирцева

В ролях: Владимир Аблогин, Анна Леванова, Илья Ловкий, Семён Сердин, Василий Цыганцов, Александр Лимин, Павел Рассомахин, Сесиль Свердлова, Людмила Гамуряк, Данила Колбасеев

Описание: 200 лет назад родился русский поэт Михаил Лермонтов. Юноша с огромными глазами: его портрет известен каждому со времён школы. Лермонтов писал стихи, воевал, влюблялся и был убит на дуэли. Короткая жизнь в 27 лет. Но что мы знаем о настоящем Лермонтове? Биографический документально-игровой фильм подробно рассказывает о жизни незаурядного человека и великого поэта.

Качество: HDTVRip
Формат: AVI
Видео кодек: XviD
Аудио кодек: AC3
Видео: XviD, 1976 Кбит/с, 720x400, 25.000 fps
Аудио: AC3, 2 ch, 192 Кбит/с, 48.0 KHz

Сэмпл
General
Complete name : /home/sb1855/files/Lermontov.HDTVRip.avi
Format : AVI
Format/Info : Audio Video Interleave
File size : 1.37 GiB
Duration : 1h 29mn
Overall bit rate : 2 179 Kbps
Writing application : VirtualDubMod 1.5.10.3 | www.virtualdub-fr.org || (build 2550/release)
Writing library : VirtualDubMod build 2550/release

Video
ID : 0
Format : MPEG-4 Visual
Format profile : Advanced Simple@L5
Format settings, BVOP : 2
Format settings, QPel : No
Format settings, GMC : No warppoints
Format settings, Matrix : Default (H.263)
Codec ID : XVID
Codec ID/Hint : XviD
Duration : 1h 29mn
Bit rate : 1 977 Kbps
Width : 720 pixels
Height : 400 pixels
Display aspect ratio : 16:9
Frame rate : 25.000 fps
Color space : YUV
Chroma subsampling : 4:2:0
Bit depth : 8 bits
Scan type : Progressive
Compression mode : Lossy
Bits/(Pixel*Frame) : 0.275
Stream size : 1.24 GiB (91%)
Writing library : XviD 1.2.1 (UTC 2008-12-04)

Audio
ID : 1
Format : AC-3
Format/Info : Audio Coding 3
Mode extension : CM (complete main)
Format settings, Endianness : Big
Codec ID : 2000
Duration : 1h 29mn
Bit rate mode : Constant
Bit rate : 192 Kbps
Channel(s) : 2 channels
Channel positions : Front: L R
Sampling rate : 48.0 KHz
Bit depth : 16 bits
Compression mode : Lossy
Stream size : 123 MiB (9%)
Alignment : Split accross interleaves
Interleave, duration : 40 ms (1.00 video frame)
Interleave, preload duration : 500 ms

piratbit.pw



Скачать Лермонтов через торрент http://pic.kartinco.top/img/2014-11/03/b4tlsotkqd31sak8371x328jr.jpg Скачать фильм Лермонтов через торрент бесплантно в хорошем качестве Описание: 200 лет назад родился русский поэт Михаил Лермонтов. Юноша с огромными глазами: его портрет известен каждому со времён школы. ... 9.9 10 26
Торрент: Зарегистрирован [2014-11-03 09:07] · скачан: 767 раз
Статус: √ проверено
Размер: 1.37 GB
Как cкачать? Как скачать Лермонтов через торрент | qTorrent

% Раздел Тема Автор DL S | L
Кино СССР [ 1.37 GB ] Лермонтов [1986 биография DVDRip] Скорпион1976 Скачать
1 | 0

28-11-2019 20:33  

Отключить всю рекламу на сайте

09-11-2014 04:29 Лермонтов Скачать торрент  

отличный фильм!piratbit.pw



16-11-2014 13:31 Лермонтов Скачать торрент  

Спасибо за труд.piratbit.pw



29-11-2014 17:11 Лермонтов Скачать торрент  

Почему Игорь Петренко на афише? Это другой фильм про Лермонтова?piratbit.pw



    Дорогой пользователь! Огромная просьба, поблагодарите релизера, оцените раздачу и оставьте свои комментарий, если Вы скачали Лермонтов через торрент бесплатно! Внесите свою лепту в развитие PiratBit!
    Комментировать посты могут только пользователи прошедшие не сложную регистрацию
    Показать сообщения:    

    Лермонтов через торрент
    Скачать бесплатно Лермонтов
    Лермонтов скачать торрент
    Лермонтов смотреть онлайн
    Cкачать фильм Лермонтов бесплатно
    Лермонтов скачать торрент в хорошем качестве
    Лермонтов смотреть онлайн бесплатно в хорошем качестве


    Вы не можете начинать темы
    Вы не можете отвечать на сообщения
    Вы не можете редактировать свои сообщения
    Вы не можете удалять свои сообщения
    Вы не можете голосовать в опросах
    Вы не можете прикреплять файлы к сообщениям
    Вы можете скачивать файлы