1 сезон

3 сезон

iTunes

1

iTunes

DUB Netflix

iTunes

13

1 сезон

RePack

30

Deluxe

pack

Легкие деньги

ВАЖНО

ИГРА 18+

pack

RePack

MK11

RePack

jed

RePack

fifa19

RePack

RDR2

RePack

NEED FOR SPEED™ PAYBACK

4 сезон

9 сезон

Бесстыжие 9 сезон

Все сериалы

все сериалы на PB.wtf

RePack

FAR CRY 5

Anonymous, доброе утро, мы не успеваем до 1 числа собрать деньги на оплату серверов, помогите нам пожалуйста в это трудное время. В качестве благодарности мы отключим Вам всю рекламу на сайте (укажите свой ник в строку Ваше имя)!

×
  
Magnet ссылка

Среди мертвых / Dead Within (Бен Вагнер ) [2014, ужасы, триллер, драма, WEB-DLRip, Любительский (одноголосый)[datynet] piratbit.pw

Среди мертвых через торрент piratbit.pw

Размер: 1.28 GB | Добавлен: 6 лет 7 мес. назад | Торрент скачан:343 раза
Скачать  

02-11-2014 22:07 Среди мертвых Скачать торрент  


Среди мертвых / Dead Within


Год выпуска: 2014
Страна:США
Жанр:ужасы, триллер, драма
Продолжительность: 01:22:23
Перевод:Любительский (одноголосый)[datynet] - по переводу [Did Andron]
Режиссер:Бен Вагнер
В ролях:

Дин Чеквала (Mike), Рик Федерман (Todd), Дж. Клод Диринг (озвучка), Эми Кейл Петерсон (Kim), Сара МакМастер (Erika), Тьяго Де Маседо (Teacher)
  • Описание:
    Действие фильма происходит спустя полгода после начала глобальной эпидемии, уничтожившей человечество. Супружеская пара заперлась в лесной хижине и держит оборону, хотя периодически к ним пытаются прорваться жуткие существа.


    Качество:WEB-DLRip
    Формат:AVI
    Видео кодек: XviD
    Аудио кодек:AC3
    Видео: XviD, 720x400 (16:9), 1796 kbps, 23,976 fps, 0,314 bpp
    Аудио №1: AC3 / 2.0 / 48 kHz / 192 kbps / Russian
    Аудио №2: AC-3, 48.0 KHz, 2 ch, 224 Kbps, / English

    Код:

    General
    Complete name                            : D:\Торенты\Dead.Within.2014.WEB.DLRip.CINEMANIA.avi
    Format                                   : AVI
    Format/Info                              : Audio Video Interleave
    File size                                : 1.28 GiB
    Duration                                 : 1h 22mn
    Overall bit rate                         : 2 227 Kbps
    Writing application                      : VirtualDubMod 1.5.10.2 (build 2542/release)
    Writing library                          : VirtualDubMod build 2542/release

    Video
    ID                                       : 0
    Format                                   : MPEG-4 Visual
    Format profile                           : Advanced Simple@L5
    Format settings, BVOP                    : 2
    Format settings, QPel                    : No
    Format settings, GMC                     : No warppoints
    Format settings, Matrix                  : Default (H.263)
    Muxing mode                              : Packed bitstream
    Codec ID                                 : XVID
    Codec ID/Hint                            : XviD
    Duration                                 : 1h 22mn
    Bit rate                                 : 1 797 Kbps
    Width                                    : 720 pixels
    Height                                   : 400 pixels
    Display aspect ratio                     : 16:9
    Frame rate                               : 23.976 fps
    Color space                              : YUV
    Chroma subsampling                       : 4:2:0
    Bit depth                                : 8 bits
    Scan type                                : Progressive
    Compression mode                         : Lossy
    Bits/(Pixel*Frame)                       : 0.260
    Stream size                              : 1.03 GiB (81%)
    Writing library                          : XviD 64

    Audio #1
    ID                                       : 1
    Format                                   : AC-3
    Format/Info                              : Audio Coding 3
    Mode extension                           : CM (complete main)
    Format settings, Endianness              : Big
    Codec ID                                 : 2000
    Duration                                 : 1h 22mn
    Bit rate mode                            : Constant
    Bit rate                                 : 192 Kbps
    Channel(s)                               : 2 channels
    Channel positions                        : Front: L R
    Sampling rate                            : 48.0 KHz
    Bit depth                                : 16 bits
    Compression mode                         : Lossy
    Stream size                              : 113 MiB (9%)
    Alignment                                : Split accross interleaves
    Interleave, duration                     : 42 ms (1.00 video frame)
    Interleave, preload duration             : 500 ms

    Audio #2
    ID                                       : 2
    Format                                   : AC-3
    Format/Info                              : Audio Coding 3
    Mode extension                           : CM (complete main)
    Format settings, Endianness              : Big
    Codec ID                                 : 2000
    Duration                                 : 1h 22mn
    Bit rate mode                            : Constant
    Bit rate                                 : 224 Kbps
    Channel(s)                               : 2 channels
    Channel positions                        : Front: L R
    Sampling rate                            : 48.0 KHz
    Bit depth                                : 16 bits
    Compression mode                         : Lossy
    Stream size                              : 132 MiB (10%)
    Alignment                                : Aligned on interleaves
    Interleave, duration                     : 42 ms (1.00 video frame)
    Interleave, preload duration             : 512 ms


    Скриншоты:

    Срочно! Нужна помощь!


    © Оформление by Ravenpiratbit.pw



  • Скачать Среди мертвых через торрент https://pic1.kartinco.top/images/61/ordi9.jpg Скачать фильм Среди мертвых через торрент бесплантно в хорошем качестве Описание:Действие фильма происходит спустя полгода после начала глобальной эпидемии, уничтожившей человечество. Супружеская пара заперлась ... 9.6 10 17
    Торрент: Зарегистрирован [2014-11-02 23:09] · скачан: 343 раз
    Статус: T временная
    Размер: 1.28 GB
    Как cкачать? Как скачать Среди мертвых через торрент | UTorrent

    28-11-2019 20:33  

    Отключить всю рекламу на сайте

      Дорогой пользователь! Огромная просьба, поблагодарите релизера, оцените раздачу и оставьте свои комментарий, если Вы скачали Среди мертвых через торрент бесплатно! Внесите свою лепту в развитие PiratBit!
      Комментировать посты могут только пользователи прошедшие не сложную регистрацию
      Показать сообщения:    

      Среди мертвых через торрент
      Скачать бесплатно Среди мертвых
      Среди мертвых скачать торрент
      Среди мертвых смотреть онлайн
      Cкачать фильм Среди мертвых бесплатно
      Среди мертвых скачать торрент в хорошем качестве
      Среди мертвых смотреть онлайн бесплатно в хорошем качестве


      Вы не можете начинать темы
      Вы не можете отвечать на сообщения
      Вы не можете редактировать свои сообщения
      Вы не можете удалять свои сообщения
      Вы не можете голосовать в опросах
      Вы не можете прикреплять файлы к сообщениям
      Вы можете скачивать файлы