Ссылка на приватное зеркало нашего сайта всего за 1$. Внимание количество ограничено!!!

2 сезон

iTunes

1 сезон

1

iTunes

iTunes

iTunes

1 сезон

RePack

30

ИГРА 18+

pack

ВАЖНО

!!Акция!!

Alien_RageХит недели

RePack

MK11
pack

Забери бонус

RePack

jed

!!Акция!!

Alien_Rage

RePack

fifa19

RePack

Assassins Creed: Odyssey

RePack

NEED FOR SPEED™ PAYBACK

4 сезон

9 сезон

Бесстыжие 9 сезон

Все сериалы

все сериалы на PB.wtf

RePack

FAR CRY 5
  

Неваляшка 2 (Анарио Мамедов) [2014, Россия, комедия, спорт, SATRip] piratbit.pw

Неваляшка 2 через торрент piratbit.pw

Размер: 1.36 GB | Добавлен: 5 лет 11 мес. назад | Торрент скачан:3675 раз
Скачать  

02-11-2014 19:29 Неваляшка 2 Скачать торрент  

Неваляшка 2

Год выпуска: 2014
Страна: Россия
Жанр: комедия, спорт
Продолжительность: 01:25:31
Перевод: Не требуется
Режиссер: Анарио Мамедов
В ролях: Павел Деревянко, София Пригара, Карина Андоленко, Андрей Кайков, Эвелина Блёданс, Игорь Савочкин, Александр Робак, Михаил Шкамаридин, Надежда Тюрина, Александр Колесников (рефери), Николай Сороканов (гопник), Ольга Дымская (Эльза)

Описание:
Главный герой фильма, очень известный в прошлом боксер, о его победах писала мировая пресса. И он в свое время считался непобедимым. Правда была у него одна черта характера, которая очень не нравилась боссам от большого бокса. «Неваляшка» - такое прозвище в свое время получил наш герой, был очень честный и принципиальный человек. Он даже не взял миллион долларов, за проигрыш на ринге.
Зато теперь он работает обыкновенным охранником в ювелирном магазине и сильно влюблен в сотрудницу этого магазина, которую зовут Катериной. Но однажды его любимую женщину незаслуженно оскорбили и бывший боксер, как истинный рыцарь и мужчина, заступается за свою прекрасную даму и ссорится с очень влиятельными людьми города.
Но «Неваляшка», ради любви, готов стерпеть все, даже возвращение на ринг и участие в кровавых боях без правил. Ведь в таких поединках только один остается на ринге, а противника выносят и в лучшем случае в реанимацию.
Качество: SATRip
Формат: AVI
Видео кодек: XviD
Аудио кодек:AC3
Видео: XviD, 720x304 (2.35:1), 1985 kbps, 25 fps, 0,363 bpp
Аудио: AC3 / 2.0 / 48 kHz / 192 kbps / 16 bit

General
Complete name : D:\Торенты\Nevaliachka.2014.SATRip.Files-x.GeneralFilm.avi
Format : AVI
Format/Info : Audio Video Interleave
File size : 1.36 GiB
Duration : 1h 25mn
Overall bit rate : 2 277 Kbps
Writing application : VirtualDubModRus 1.5.10.2 (build 2542/release)
Writing library : VirtualDubMod build 2542/release

Video
ID : 0
Format : MPEG-4 Visual
Format profile : Advanced Simple@L5
Format settings, BVOP : 1
Format settings, QPel : No
Format settings, GMC : No warppoints
Format settings, Matrix : Custom
Codec ID : XVID
Codec ID/Hint : XviD
Duration : 1h 25mn
Bit rate : 1 986 Kbps
Width : 720 pixels
Height : 304 pixels
Display aspect ratio : 2.35:1
Frame rate : 25.000 fps
Color space : YUV
Chroma subsampling : 4:2:0
Bit depth : 8 bits
Scan type : Progressive
Compression mode : Lossy
Bits/(Pixel*Frame) : 0.363
Stream size : 1.19 GiB (87%)
Writing library : XviD 73

Audio
ID : 1
Format : AC-3
Format/Info : Audio Coding 3
Mode extension : CM (complete main)
Codec ID : 2000
Duration : 1h 25mn
Bit rate mode : Constant
Bit rate : 192 Kbps
Channel(s) : 2 channels
Channel positions : Front: L R
Sampling rate : 48.0 KHz
Bit depth : 16 bits
Compression mode : Lossy
Stream size : 117 MiB (8%)
Alignment : Split accross interleaves

Срочно! Нужна помощь! piratbit.pw



Скачать Неваляшка 2 через торрент http://i65.fastpic.ru/big/2014/1102/f0/c6303671b5db1f856f3dd6f7b6d72ff0.jpg Скачать фильм Неваляшка 2 через торрент бесплантно в хорошем качестве Описание: Главный герой фильма, очень известный в прошлом боксер, о его победах писала мировая пресса. И он в свое время считался ... 9.5 10 80
Info! Золотая раздача, скачанное не засчитывается.
Торрент: Зарегистрирован [2014-11-02 19:29] · скачан: 3 675 раз
Статус: √ проверено
Размер: 1.36 GB
Как cкачать? Как скачать Неваляшка 2 через торрент | qTorrent

% Раздел Тема Автор DL S | L
Наши сериалы [ 4.35 GB ] Неваляшка / Сезон 1 / Серии 1-2 из 2 [2016 Россия WEB-DL 1080p] GEKADOL Скачать
1 | 0
Наши сериалы [ 2.74 GB ] Неваляшка / Сезон 1 / Серии 1-2 из 2 [2016 Россия WEB-DLRip] GEKADOL Скачать
1 | 0

28-11-2019 20:33  

Отключить всю рекламу на сайте

07-11-2014 09:03 Неваляшка 2 Скачать торрент  

мда не о чем, как говорится твердость - не тупость, тут именно обратное.piratbit.pw



26-11-2014 18:56 Неваляшка 2 Скачать торрент  

первая часть была интересней и смешней
спасибо автору за раздачуpiratbit.pw



29-12-2014 08:20 Неваляшка 2 Скачать торрент  

на то она и первая часть))piratbit.pw



    Дорогой пользователь! Огромная просьба, поблагодарите релизера, оцените раздачу и оставьте свои комментарий, если Вы скачали Неваляшка 2 через торрент бесплатно! Внесите свою лепту в развитие PiratBit!
    Комментировать посты могут только пользователи прошедшие не сложную регистрацию
    Показать сообщения:    

    Неваляшка 2 через торрент
    Скачать бесплатно Неваляшка 2
    Неваляшка 2 скачать торрент
    Неваляшка 2 смотреть онлайн
    Cкачать фильм Неваляшка 2 бесплатно
    Неваляшка 2 скачать торрент в хорошем качестве
    Неваляшка 2 смотреть онлайн бесплатно в хорошем качестве


    Вы не можете начинать темы
    Вы не можете отвечать на сообщения
    Вы не можете редактировать свои сообщения
    Вы не можете удалять свои сообщения
    Вы не можете голосовать в опросах
    Вы не можете прикреплять файлы к сообщениям
    Вы можете скачивать файлы