1 сезон

3 сезон

iTunes

1

iTunes

DUB Netflix

iTunes

13

1 сезон

RePack

30

Deluxe

pack

Легкие деньги

ВАЖНО

ИГРА 18+

pack

RePack

MK11

RePack

jed

RePack

fifa19

RePack

RDR2

RePack

NEED FOR SPEED™ PAYBACK

4 сезон

9 сезон

Бесстыжие 9 сезон

Все сериалы

все сериалы на PB.wtf

RePack

FAR CRY 5

Anonymous, доброе утро, мы не успеваем до 1 числа собрать деньги на оплату серверов, помогите нам пожалуйста в это трудное время. В качестве благодарности мы отключим Вам всю рекламу на сайте (укажите свой ник в строку Ваше имя)!

×
  
Magnet ссылка

Вторжение в Лос-Анджелес / Apocalypse L.A. (Тернер Клэй / Turner Clay) [2014, США, ужасы, фантастика, боевик, DVDRip, Любительский (одноголосый)[Ворон] piratbit.pw

Вторжение в Лос-Анджелес через торрент piratbit.pw

Размер: 1.25 GB | Добавлен: 6 лет 7 мес. назад | Торрент скачан:560 раз
Скачать  

02-11-2014 19:20 Вторжение в Лос-Анджелес Скачать торрент  

Вторжение в Лос-Анджелес / Apocalypse L.A.

Год выпуска: 2014
Страна: США
Жанр: ужасы, фантастика, боевик
Продолжительность: 01:22:47
Перевод: Любительский (одноголосый)[Ворон]
Субтитры: русские, английские, Spanish, French,
Режиссер: Тернер Клэй / Turner Clay
В ролях: Джастин Рэй (John), Стефани Эстес (Tori), Рон Хэнкс (Scott), Али Уильямс (Astrid), Майкл Дж. Силафф (Infected Roommate), Francisco Froes (Car Thief), Таша Диксон (Eve), Джерод Мигер (Turner), Джефф Локкер (Newscaster), Тэнси Александр (Newscaster), Майкл Табер (Adam), Кендалл Мэйхью (Astrid's Roommate)

Описание:
После того, как на Лос-Анджелес обрушился метеоритный дождь, токсичный дым распространяется по всему городу, вызывая в организме человека необратимые изменения. Небольшая группа выживших пытается покинуть город и добраться до побережья...
Рейтинг:

Качество: DVDRip
Формат: MKV
Видео кодек: AVC
Аудио кодек:AC3
Видео: AVC, 720x356 (2.40:1), 1541 kbps, 23,976 fps, 0,251 bpp
Аудио №1: русский / AC3 / 2.0 / 48 kHz / 192 kbps / 16 bit ||
Аудио №2: английский / AC3 / 5.1 / 48 kHz / 384 kbps / 16 bit
Навигация по главам: есть

General
Unique ID : 222633834446553477971702415226534939511 (0xA77DB782CA117581BF7278347FDCCB77)
Complete name : D:\Торенты\Disaster.L.A.2014.DVDRip.CINEMANIA.mkv
Format : Matroska
Format version : Version 4 / Version 2
File size : 1.25 GiB
Duration : 1h 22mn
Overall bit rate : 2 161 Kbps
Movie name : Release Group CINEMANIA
Encoded date : UTC 2014-11-02 07:28:31
Writing application : mkvmerge v7.3.0 ('Nouages') 64bit built on Oct 22 2014 18:53:34
Writing library : libebml v1.3.0 + libmatroska v1.4.1

Video
ID : 1
Format : AVC
Format/Info : Advanced Video Codec
Format profile : High@L3.1
Format settings, CABAC : Yes
Format settings, ReFrames : 9 frames
Codec ID : V_MPEG4/ISO/AVC
Duration : 1h 22mn
Bit rate : 1 542 Kbps
Width : 720 pixels
Height : 356 pixels
Display aspect ratio : 2.40:1
Original display aspect ratio : 2.40:1
Frame rate : 23.976 fps
Color space : YUV
Chroma subsampling : 4:2:0
Bit depth : 8 bits
Scan type : Progressive
Bits/(Pixel*Frame) : 0.251
Stream size : 913 MiB (71%)
Title : Release Group CINEMANIA
Writing library : x264 core 140 r2377 1ca7bb9
Encoding settings : cabac=1 / ref=9 / deblock=1:-3:-3 / analyse=0x3:0x133 / me=umh / subme=9 / psy=1 / psy_rd=1.00:0.00 / mixed_ref=1 / me_range=24 / chroma_me=1 / trellis=2 / 8x8dct=1 / cqm=0 / deadzone=21,11 / fast_pskip=0 / chroma_qp_offset=-2 / threads=18 / lookahead_threads=2 / sliced_threads=0 / nr=0 / decimate=1 / interlaced=0 / bluray_compat=0 / constrained_intra=0 / bframes=6 / b_pyramid=2 / b_adapt=2 / b_bias=0 / direct=3 / weightb=1 / open_gop=0 / weightp=2 / keyint=240 / keyint_min=24 / scenecut=40 / intra_refresh=0 / rc_lookahead=60 / rc=crf / mbtree=1 / crf=16.0 / qcomp=0.60 / qpmin=0 / qpmax=69 / qpstep=4 / ip_ratio=1.40 / aq=1:1.00
Default : Yes
Forced : No
Color primaries : BT.601-6 525, BT.1358 525, BT.1700 NTSC, SMPTE 170M
Transfer characteristics : BT.709-5, BT.1361
Matrix coefficients : BT.601-6 525, BT.1358 525, BT.1700 NTSC, SMPTE 170M

Audio #1
ID : 2
Format : AC-3
Format/Info : Audio Coding 3
Mode extension : CM (complete main)
Codec ID : A_AC3
Duration : 1h 22mn
Bit rate mode : Constant
Bit rate : 192 Kbps
Channel(s) : 2 channels
Channel positions : Front: L R
Sampling rate : 48.0 KHz
Bit depth : 16 bits
Compression mode : Lossy
Delay relative to video : -83ms
Stream size : 114 MiB (9%)
Title : Ворон
Language : Russian
Default : Yes
Forced : Yes

Audio #2
ID : 3
Format : AC-3
Format/Info : Audio Coding 3
Mode extension : CM (complete main)
Codec ID : A_AC3
Duration : 1h 22mn
Bit rate mode : Constant
Bit rate : 384 Kbps
Channel(s) : 6 channels
Channel positions : Front: L C R, Side: L R, LFE
Sampling rate : 48.0 KHz
Bit depth : 16 bits
Compression mode : Lossy
Stream size : 227 MiB (18%)
Language : English
Default : No
Forced : No

Text #1
ID : 4
Format : UTF-8
Codec ID : S_TEXT/UTF8
Codec ID/Info : UTF-8 Plain Text
Language : Russian
Default : Yes
Forced : Yes

Text #2
ID : 5
Format : UTF-8
Codec ID : S_TEXT/UTF8
Codec ID/Info : UTF-8 Plain Text
Language : English
Default : No
Forced : No

Text #3
ID : 6
Format : UTF-8
Codec ID : S_TEXT/UTF8
Codec ID/Info : UTF-8 Plain Text
Language : Spanish
Default : No
Forced : No

Text #4
ID : 7
Format : UTF-8
Codec ID : S_TEXT/UTF8
Codec ID/Info : UTF-8 Plain Text
Language : French
Default : No
Forced : No

Menu
00:00:00.000 : :Chapter 1
00:08:58.496 : :Chapter 2
00:20:05.871 : :Chapter 3
00:28:54.900 : :Chapter 4
00:39:22.860 : :Chapter 5
00:48:41.001 : :Chapter 6
00:58:16.076 : :Chapter 7
01:08:01.494 : :Chapter 8
01:18:07.808 : :Chapter 9
01:21:28.675 : :Chapter 10

Срочно! Нужна помощь! piratbit.pw



Скачать Вторжение в Лос-Анджелес через торрент http://i63.fastpic.ru/big/2014/1102/a6/97d513c922e681aa16d4cfb12e62caa6.jpg Скачать фильм Вторжение в Лос-Анджелес через торрент бесплантно в хорошем качестве Описание: После того, как на Лос-Анджелес обрушился метеоритный дождь, токсичный дым распространяется по всему городу, вызывая в организме ... 9.9 10 17
Info! Золотая раздача, скачанное не засчитывается.
Торрент: Зарегистрирован [2014-11-02 19:20] · скачан: 560 раз
Статус: T временная
Размер: 1.25 GB
Как cкачать? Как скачать Вторжение в Лос-Анджелес через торрент | UTorrent

28-11-2019 20:33  

Отключить всю рекламу на сайте

02-11-2014 20:29 Вторжение в Лос-Анджелес Скачать торрент  

Название как всегда переведено "оригинально" ))
Подумал про инопланетян опять что нибудь))piratbit.pw



02-11-2014 23:03 Вторжение в Лос-Анджелес Скачать торрент  

Boombastish писал(а):

Название как всегда переведено "оригинально" ))
Подумал про инопланетян опять что нибудь))

А оказалось опять про зомбиpiratbit.pw



03-11-2014 00:22 Вторжение в Лос-Анджелес Скачать торрент  

спецэффекты жуть =))))))))))))))))))))piratbit.pw



03-11-2014 11:58 Вторжение в Лос-Анджелес Скачать торрент  

PIXELINTERLAN писал(а):

спецэффекты жуть =))))))))))))))))))))

ты тоже жутьpiratbit.pw



04-11-2014 17:48 Вторжение в Лос-Анджелес Скачать торрент  

За весь фильм около 10 ти жмуриков показали,вообщем хрень а не фильм :cansored:piratbit.pw



06-11-2014 07:22 Вторжение в Лос-Анджелес Скачать торрент  

ну и шлакpiratbit.pw



30-12-2014 17:58 Вторжение в Лос-Анджелес Скачать торрент  

алексей64 писал(а):

ну и шлак

Согласен на 150%. У америкосов если в фильме нет зомби (мертвецов, упырей и прочей нечисти) значит фильм смотреть никто не будет. И они еще борются за звание образцовой страны! Имейте совесть, господа гамбургероеды!piratbit.pw



    Дорогой пользователь! Огромная просьба, поблагодарите релизера, оцените раздачу и оставьте свои комментарий, если Вы скачали Вторжение в Лос-Анджелес через торрент бесплатно! Внесите свою лепту в развитие PiratBit!
    Комментировать посты могут только пользователи прошедшие не сложную регистрацию
    Показать сообщения:    

    Вторжение в Лос-Анджелес через торрент
    Скачать бесплатно Вторжение в Лос-Анджелес
    Вторжение в Лос-Анджелес скачать торрент
    Вторжение в Лос-Анджелес смотреть онлайн
    Cкачать фильм Вторжение в Лос-Анджелес бесплатно
    Вторжение в Лос-Анджелес скачать торрент в хорошем качестве
    Вторжение в Лос-Анджелес смотреть онлайн бесплатно в хорошем качестве


    Вы не можете начинать темы
    Вы не можете отвечать на сообщения
    Вы не можете редактировать свои сообщения
    Вы не можете удалять свои сообщения
    Вы не можете голосовать в опросах
    Вы не можете прикреплять файлы к сообщениям
    Вы можете скачивать файлы