Ссылка на приватное зеркало нашего сайта всего за 1$. Внимание количество ограничено!!!

2 сезон

iTunes

1 сезон

1

iTunes

iTunes

iTunes

1 сезон

RePack

30

ИГРА 18+

pack

ВАЖНО

!!Акция!!

Alien_RageХит недели

RePack

MK11
pack

Забери бонус

RePack

jed

!!Акция!!

Alien_Rage

RePack

fifa19

RePack

Assassins Creed: Odyssey

RePack

NEED FOR SPEED™ PAYBACK

4 сезон

9 сезон

Бесстыжие 9 сезон

Все сериалы

все сериалы на PB.wtf

RePack

FAR CRY 5
  

Еще один год (Оксана Бычкова) [2014, Россия, драма, DVDScreener) piratbit.pw

Еще один год через торрент piratbit.pw

Размер: 1.37 GB | Добавлен: 5 лет 11 мес. назад | Торрент скачан:642 раза
Скачать  

02-11-2014 03:17 Еще один год Скачать торрент  

Еще один год


  • Год выпуска: 2014
  • Страна: Россия
  • Жанр: драма
  • Продолжительность: 01:47:33
  • Перевод: Не требуется
  • Субтитры: английские (неотключаемые)
  • Режиссер: Оксана Бычкова
  • В ролях:

    Алексей Филимонов, Надежда Лумпова

  • Описание:
    История возникновения страстной любви сквозь боль, страдания и слезы. Вряд ли в арсенале человеческих чувств и эмоций найдется что-то ярче и желаннее, чем любовь и страсть. Они редко ходят по отдельности, все больше вместе, сплетаются в один узел и путают без того подчас сложные отношения. Он - бомбила, подрабатывающий по ночам, она - начинающий веб-дизайнер в модном СМИ. Любви в этих отношения сполна, но они из разных социальных слоев, у них разные интересы. Эти различия, в комбинации с бешеной страстью, постепенно достигают своего апогея. И все это происходит в течение года. Они маются, расстаются, сходятся, любят, ненавидят, занимаются любовью и снова убегают друг от друга и от себя. Что творится в головах и сердцах этих людей не понимает никто, но самое интересное, а знают ли они сами?
  • Рейтинг:



  • Качество: DVDScreener
  • Формат: :AVI
  • Видео кодек: XviD
  • Аудио кодек: AC3
  • Видео: 720x400 (16:9), 1617 kbps, 24 fps, 0,234 bpp
  • Аудио: 2.0 / 48 kHz / 192 kbps / 16 bit
  • Релиз от: GEKADOL

    Код:

    General
    Complete name                            : I:\Esh40.0d1n.g0d.2014.O.DVDScr.avi
    Format                                   : AVI
    Format/Info                              : Audio Video Interleave
    File size                                : 1.37 GiB
    Duration                                 : 1h 47mn
    Overall bit rate                         : 1 819 Kbps
    Writing application                      : VirtualDubMod 1.5.10.3 | www.virtualdub-fr.org || (build 2550/release)
    Writing library                          : VirtualDubMod build 2550/release

    Video
    ID                                       : 0
    Format                                   : MPEG-4 Visual
    Format profile                           : Advanced Simple@L5
    Format settings, BVOP                    : 2
    Format settings, QPel                    : No
    Format settings, GMC                     : No warppoints
    Format settings, Matrix                  : Default (MPEG)
    Codec ID                                 : XVID
    Codec ID/Hint                            : XviD
    Duration                                 : 1h 47mn
    Bit rate                                 : 1 618 Kbps
    Width                                    : 720 pixels
    Height                                   : 400 pixels
    Display aspect ratio                     : 16:9
    Frame rate                               : 24.000 fps
    Color space                              : YUV
    Chroma subsampling                       : 4:2:0
    Bit depth                                : 8 bits
    Scan type                                : Progressive
    Compression mode                         : Lossy
    Bits/(Pixel*Frame)                       : 0.234
    Stream size                              : 1.22 GiB (89%)
    Writing library                          : XviD 1.2.1 (UTC 2008-12-04)

    Audio
    ID                                       : 1
    Format                                   : AC-3
    Format/Info                              : Audio Coding 3
    Mode extension                           : CM (complete main)
    Codec ID                                 : 2000
    Duration                                 : 1h 47mn
    Bit rate mode                            : Constant
    Bit rate                                 : 192 Kbps
    Channel(s)                               : 2 channels
    Channel positions                        : Front: L R
    Sampling rate                            : 48.0 KHz
    Bit depth                                : 16 bits
    Compression mode                         : Lossy
    Stream size                              : 148 MiB (11%)
    Alignment                                : Split accross interleaves
    Interleave, duration                     : 42 ms (1.00 video frame)
    Interleave, preload duration             : 500 ms


    Скриншоты:



    piratbit.pw



  • Скачать Еще один год через торрент http://i63.fastpic.ru/big/2014/1102/a9/f5e2689c6fcf2fbac21b01aeb3ffeda9.jpg Скачать фильм Еще один год через торрент бесплантно в хорошем качестве Описание: История возникновения страстной любви сквозь боль, страдания и слезы. Вряд ли в арсенале человеческих чувств и эмоций найдется ... 8.6 10 11
    Торрент: Зарегистрирован [2014-11-02 03:17] · скачан: 642 раз
    Статус: T временная
    Размер: 1.37 GB
    Как cкачать? Как скачать Еще один год через торрент | qTorrent

    % Раздел Тема Автор DL S | L
    Арт-хаус и авторское кино [ 13.65 GB ] Еще один год / Another Year [2010 Мело BDRip 1080p] MVO Ворон Скачать
    1 | 0
    Политика, религия [ 1.4 GB ] Беседа о. Виктора Кузнецова с р.Б. Екатериной "Ещё один год жизни России" [2014 документальный SATRip Оригинал] metanoia Скачать
    1 | 0
    Арт-хаус и авторское кино [ 2.05 GB ] Еще один год / Another Year [2010 HDRip лицензия] coc900 Скачать
    1 | 0

    28-11-2019 20:33  

    Отключить всю рекламу на сайте

    03-11-2014 18:00 Еще один год Скачать торрент  

    Норм фильм ? кто смарел ?)piratbit.pw



    08-11-2014 07:02 Еще один год Скачать торрент  

    AJIiEN писал(а):

    Норм фильм ? кто смарел ?)

    Скучно,очень скучно,предприняли попытку сделать авторское кино,а в итоге получилась обыкновенная нудятина,не вызывающая никаких эмоций кроме зевоты...piratbit.pw



      Дорогой пользователь! Огромная просьба, поблагодарите релизера, оцените раздачу и оставьте свои комментарий, если Вы скачали Еще один год через торрент бесплатно! Внесите свою лепту в развитие PiratBit!
      Комментировать посты могут только пользователи прошедшие не сложную регистрацию
      Показать сообщения:    

      Еще один год через торрент
      Скачать бесплатно Еще один год
      Еще один год скачать торрент
      Еще один год смотреть онлайн
      Cкачать фильм Еще один год бесплатно
      Еще один год скачать торрент в хорошем качестве
      Еще один год смотреть онлайн бесплатно в хорошем качестве


      Вы не можете начинать темы
      Вы не можете отвечать на сообщения
      Вы не можете редактировать свои сообщения
      Вы не можете удалять свои сообщения
      Вы не можете голосовать в опросах
      Вы не можете прикреплять файлы к сообщениям
      Вы можете скачивать файлы