1 сезон

3 сезон

iTunes

1

iTunes

DUB Netflix

iTunes

13

1 сезон

RePack

30

Deluxe

pack

Легкие деньги

ВАЖНО

ИГРА 18+

pack

RePack

MK11

RePack

jed

RePack

fifa19

RePack

RDR2

RePack

NEED FOR SPEED™ PAYBACK

4 сезон

9 сезон

Бесстыжие 9 сезон

Все сериалы

все сериалы на PB.wtf

RePack

FAR CRY 5

Anonymous, добрый вечер, мы не успеваем до 1 числа собрать деньги на оплату серверов, помогите нам пожалуйста в это трудное время. В качестве благодарности мы отключим Вам всю рекламу на сайте (укажите свой ник в строку Ваше имя)!

×
  
Magnet ссылка

Город, который боялся заката / The Town That Dreaded Sundown (Альфонсо Гомез-Рейон / Alfonso Gomez-Rejon) [2014, США, ужасы, триллер, WEB-DLRip,Любительский двухголосый] piratbit.pw

Город, который боялся заката через торрент piratbit.pw

Размер: 1.32 GB | Добавлен: 6 лет 7 мес. назад | Торрент скачан:223 раза
Скачать  

01-11-2014 06:39 Город, который боялся заката Скачать торрент  

Город, который боялся заката / The Town That Dreaded Sundown

Год выпуска: 2014
Страна: США
Жанр: ужасы, триллер

Продолжительность: 01:26:03
Перевод: Любительский двухголосый
Субтитры: Нет
Режиссер: Альфонсо Гомез-Рейон / Alfonso Gomez-Rejon
В ролях: Эддисон Тимлин (Jami), Вероника Картрайт (Lillian), Гэри Коул (Chief Deputy Tillman), Эдвард Херрманн (Reverend Cartwright), Джошуа Леонард (Deputy Foster), Дэнис О’Хэйр (Charles B. Pierce, Jr.), Энтони Андерсон (Lone Wolf Morales), Трэвис Тоуп (Nick), Энди Абеле (Sackhead), Эд Лотер (Sheriff Underwood), Арабелла Филд (Dr. Kelly), Спенсер Трит Кларк (Corey)
Описание:
65 лет назад серийный убийца в маске терроризировал жителей небольшого города на западе США. И теперь так называемые «убийства в лунном свете» начинаются вновь. Кто за ними стоит? Подражатель, или что-то куда более зловещее? Одинокая школьница, хранящая свой собственный темный секрет, может стать ключом к пониманию происходящего...
Рейтинг
kinopoisk.ru: 5.235 (51)
imdb.com: 5.70 (1116)
MPAA: R - Лицам до 17 лет обязательно присутствие взрослого
Качество: WEB-DLRip
Формат: AVI
Видео кодек: XviD
Аудио кодек:AC3
Видео: XviD, 720x304 (2.35:1), 1808 kbps, 23,976 fps, 0,345 bpp
Аудио: AC3 / 5.1 / 48 kHz / 384 kbps / 16 bit

General
Complete name : D:\torrent\The.Town.That.Dreaded.Sundown.2014.WEB.DLRip.avi
Format : AVI
Format/Info : Audio Video Interleave
File size : 1.32 GiB
Duration : 1h 26mn
Overall bit rate : 2 202 Kbps
Writing application : VirtualDubMod 1.5.10.2 (build 2542/release)
Writing library : VirtualDubMod build 2542/release

Video
ID : 0
Format : MPEG-4 Visual
Format profile : Advanced Simple@L5
Format settings, BVOP : 2
Format settings, QPel : No
Format settings, GMC : No warppoints
Format settings, Matrix : Default (H.263)
Muxing mode : Packed bitstream
Codec ID : XVID
Codec ID/Hint : XviD
Duration : 1h 26mn
Bit rate : 1 809 Kbps
Width : 720 pixels
Height : 304 pixels
Display aspect ratio : 2.35:1
Frame rate : 23.976 fps
Color space : YUV
Chroma subsampling : 4:2:0
Bit depth : 8 bits
Scan type : Progressive
Compression mode : Lossy
Bits/(Pixel*Frame) : 0.345
Stream size : 1.09 GiB (82%)
Writing library : XviD 64

Audio
ID : 1
Format : AC-3
Format/Info : Audio Coding 3
Mode extension : CM (complete main)
Codec ID : 2000
Duration : 1h 26mn
Bit rate mode : Constant
Bit rate : 384 Kbps
Channel(s) : 6 channels
Channel positions : Front: L C R, Side: L R, LFE
Sampling rate : 48.0 KHz
Bit depth : 16 bits
Compression mode : Lossy
Stream size : 236 MiB (17%)
Alignment : Split accross interleaves
Interleave, duration : 42 ms (1.00 video frame)
Interleave, preload duration : 500 ms



piratbit.pw



Скачать Город, который боялся заката через торрент http://i6.imageban.ru/out/2014/11/01/b035fe43419d857da2dec432383e9a41.jpg Скачать фильм Город, который боялся заката через торрент бесплантно в хорошем качестве Описание: 65 лет назад серийный убийца в маске терроризировал жителей небольшого города на западе США. И теперь так называемые «убийства в ... 9.8 10 4
Торрент: Зарегистрирован [2014-11-01 06:39] · скачан: 223 раз
Статус: T временная
Размер: 1.32 GB
Как cкачать? Как скачать Город, который боялся заката через торрент | UTorrent

% Раздел Тема Автор DL S | L
T Фильмы (Blu-ray, BD-Remux, HDDVD) [ 21.29 GB ] Город который боялся заката / The Town That Dreaded Sundown [2014 BDRemux 1080p от NovaLan] Ворон Скачать
1 | 0
T Фильмы [HD 720p, 1080p] (Звук Cam, VO, DVO) [ 4.6 GB ] Город который боялся заката / The Town That Dreaded Sundown [2014 BDRip 720p Любительский [den904 DeadSno] Ворон Скачать
1 | 0
T Фильмы 2014 (Звук TS, Cam, VO, DVO) [ 1.37 GB ] Город который боялся заката / The Town That Dreaded Sundown [2014 WEB-DLRip Любительский Ворон Скачать
1 | 0
Классика зарубежного кино [ 1.46 GB ] Город который боялся заката / The Town That Dreaded Sundown [1976 HDRip двухголосый jump88 Скачать
1 | 0

28-11-2019 20:33  

Отключить всю рекламу на сайте

    Дорогой пользователь! Огромная просьба, поблагодарите релизера, оцените раздачу и оставьте свои комментарий, если Вы скачали Город, который боялся заката через торрент бесплатно! Внесите свою лепту в развитие PiratBit!
    Комментировать посты могут только пользователи прошедшие не сложную регистрацию
    Показать сообщения:    

    Город, который боялся заката через торрент
    Скачать бесплатно Город, который боялся заката
    Город, который боялся заката скачать торрент
    Город, который боялся заката смотреть онлайн
    Cкачать фильм Город, который боялся заката бесплатно
    Город, который боялся заката скачать торрент в хорошем качестве
    Город, который боялся заката смотреть онлайн бесплатно в хорошем качестве


    Вы не можете начинать темы
    Вы не можете отвечать на сообщения
    Вы не можете редактировать свои сообщения
    Вы не можете удалять свои сообщения
    Вы не можете голосовать в опросах
    Вы не можете прикреплять файлы к сообщениям
    Вы можете скачивать файлы