1 сезон

3 сезон

iTunes

1

iTunes

DUB Netflix

iTunes

13

1 сезон

RePack

30

Deluxe

pack

Легкие деньги

ВАЖНО

ИГРА 18+

pack

RePack

MK11

RePack

jed

RePack

fifa19

RePack

RDR2

RePack

NEED FOR SPEED™ PAYBACK

4 сезон

9 сезон

Бесстыжие 9 сезон

Все сериалы

все сериалы на PB.wtf

RePack

FAR CRY 5

Anonymous, доброе утро, мы не успеваем до 1 числа собрать деньги на оплату серверов, помогите нам пожалуйста в это трудное время. В качестве благодарности мы отключим Вам всю рекламу на сайте (укажите свой ник в строку Ваше имя)!

×
  
Magnet ссылка

Молодежь / Young Ones (Джейк Пэлтроу / Jake Paltrow) [2014, США, фантастика, боевик, драма, HDRip, Любительский (одноголосый)[datynet] piratbit.pw

Молодежь через торрент piratbit.pw

Размер: 1.23 GB | Добавлен: 6 лет 7 мес. назад | Торрент скачан:245 раз
Скачать  

31-10-2014 12:29 Молодежь Скачать торрент  

Молодежь / Young Ones

Год выпуска: 2014
Страна: США
Жанр: фантастика, боевик, драма
Продолжительность: 01:39:53
Перевод: Любительский (одноголосый)[datynet] [Janetta (спасибо большое!)]
Режиссер: Джейк Пэлтроу / Jake Paltrow
В ролях: Эль Фаннинг (Mary Holm), Николас Холт (Flem Lever), Майкл Шеннон (Ernest Holm), Коди Смит-МакФи (Jerome Holm), Айми Маллинз (Katherine Holm), Энди МакФи (Jay), Алекс МакГрегор (Sooz), Роберт Хоббс (Caleb), Дэвид Батлер (Sam Lever), Лиа О’Прей (Anna / Ears), Дэвид Клэтворти (Calvin Hooyman), Кристи Пэнкхёрст (Robbie)

Описание:
Когда Эрнест и его сын Жером потратили последние средства семьи на покупку роботизированного мула, для того чтобы доставлять продовольственные пайки для группы рабочих, которые бурят скважины для воды, они никогда не думали, что так сильно изменят свое будущее. Флем строит планы относительно дочери Эрнеста - Мэри и надеется вернуть себе земли, которыми владел его отец в период расцвета промышленного сельского хозяйства в начале XXI века. Когда желания Флема осуществляются путем блестящего использования лжи и манипулирования, происходит ряд событий, которые изменят их молодую жизнь навсегда и Жером вынужден будет сделать выбор, который не должен делать ни один ребенок.
Рейтинг:

MPAA: R - Лицам до 17 лет обязательно присутствие взрослого
Качество: HDRip
Формат: AVI
Видео кодек: XviD
Аудио кодек:MP3
Видео: XviD, 720x304 (2.35:1), 1554 kbps, 23,976 fps, 0,296 bpp
Аудио: MP3 / 2.0 / 44 kHz / 192 kbps /

General
Complete name : D:\Торенты\Young.Ones.2014.HDRip.avi
Format : AVI
Format/Info : Audio Video Interleave
File size : 1.23 GiB
Duration : 1h 39mn
Overall bit rate : 1 756 Kbps
Writing application : VirtualDubMod 1.5.10.2 (build 2542/release)
Writing library : VirtualDub build 34753/release

Video
ID : 0
Format : MPEG-4 Visual
Format profile : Advanced Simple@L5
Format settings, BVOP : 2
Format settings, QPel : No
Format settings, GMC : No warppoints
Format settings, Matrix : Default (H.263)
Muxing mode : Packed bitstream
Codec ID : XVID
Codec ID/Hint : XviD
Duration : 1h 39mn
Bit rate : 1 555 Kbps
Width : 720 pixels
Height : 304 pixels
Display aspect ratio : 2.35:1
Frame rate : 23.976 fps
Color space : YUV
Chroma subsampling : 4:2:0
Bit depth : 8 bits
Scan type : Progressive
Compression mode : Lossy
Bits/(Pixel*Frame) : 0.296
Stream size : 1.08 GiB (89%)
Writing library : XviD 64

Audio
ID : 1
Format : MPEG Audio
Format version : Version 1
Format profile : Layer 3
Codec ID : 55
Codec ID/Hint : MP3
Duration : 1h 39mn
Bit rate mode : Constant
Bit rate : 192 Kbps
Channel(s) : 2 channels
Sampling rate : 44.1 KHz
Compression mode : Lossy
Stream size : 137 MiB (11%)
Alignment : Split accross interleaves
Interleave, duration : 42 ms (1.00 video frame)
Interleave, preload duration : 500 ms
piratbit.pw



Скачать Молодежь через торрент http://i66.fastpic.ru/big/2014/1031/47/98e58b42ffedf2a157b2235138d07b47.jpg Скачать фильм Молодежь через торрент бесплантно в хорошем качестве Описание: Когда Эрнест и его сын Жером потратили последние средства семьи на покупку роботизированного мула, для того чтобы доставлять ... 9.8 10 8
Торрент: Зарегистрирован [2014-10-31 12:29] · скачан: 245 раз
Статус: T временная
Размер: 1.23 GB
Как cкачать? Как скачать Молодежь через торрент | UTorrent

% Раздел Тема Автор DL S | L
Фильмы (WEB-DL 720p, 1080p) [ 3.08 GB ] Молодежь / Young Ones [2014 WEB-DL 720p] VO Ворон Скачать
1 | 0

28-11-2019 20:33  

Отключить всю рекламу на сайте

    Дорогой пользователь! Огромная просьба, поблагодарите релизера, оцените раздачу и оставьте свои комментарий, если Вы скачали Молодежь через торрент бесплатно! Внесите свою лепту в развитие PiratBit!
    Комментировать посты могут только пользователи прошедшие не сложную регистрацию
    Показать сообщения:    

    Молодежь через торрент
    Скачать бесплатно Молодежь
    Молодежь скачать торрент
    Молодежь смотреть онлайн
    Cкачать фильм Молодежь бесплатно
    Молодежь скачать торрент в хорошем качестве
    Молодежь смотреть онлайн бесплатно в хорошем качестве


    Вы не можете начинать темы
    Вы не можете отвечать на сообщения
    Вы не можете редактировать свои сообщения
    Вы не можете удалять свои сообщения
    Вы не можете голосовать в опросах
    Вы не можете прикреплять файлы к сообщениям
    Вы можете скачивать файлы