Ссылка на приватное зеркало нашего сайта всего за 1$. Внимание количество ограничено!!!

2 сезон

iTunes

1 сезон

1

iTunes

iTunes

iTunes

1 сезон

RePack

30

ИГРА 18+

pack

ВАЖНО

!!Акция!!

Alien_RageХит недели

RePack

MK11
pack

Забери бонус

RePack

jed

!!Акция!!

Alien_Rage

RePack

fifa19

RePack

Assassins Creed: Odyssey

RePack

NEED FOR SPEED™ PAYBACK

4 сезон

9 сезон

Бесстыжие 9 сезон

Все сериалы

все сериалы на PB.wtf

RePack

FAR CRY 5
  

Выпускной (Всеволод Бродский) [2014, Россия, комедия, WEB-DLRip-AVC,] ] От R.G. PiratFilms piratbit.pw

Выпускной через торрент piratbit.pw

Размер: 2.14 GB | Добавлен: 5 лет 11 мес. назад | Торрент скачан:1631 раз
Скачать  

31-10-2014 06:15 Выпускной Скачать торрент  




Год выпуска: 2014
Страна: Россия
Жанр: комедия

Продолжительность: 01:32:21
Перевод: Не требуется
Субтитры: Нет
Режиссер: Всеволод Бродский
В ролях:

Виктор Грудев (Демьян), Кристина Исайкина (Настя), Сергей Походаев (Сопляк), Сергей Бурунов (отец Демьяна), Евгения Лютая (мать Демьяна), Константин Еремеев (отец Насти), Олеся Поташинская (мать Насти), Никита Павленко (Гнилой), Яна Енжаева (Маша Шалаева), Тимофей Зайцев (Корчагин), Александра Макарская (Жаба), Борис Эстрин (Жабин)
Описание:
Ученики 11 «А» готовятся к Выпускному по-разному: рэперы снимают клип к альбому, главный дебошир закупает алкоголь, девственник готовится к первому сексу, а влюбленный Ромео собирается надеть обручальное кольцо своей Джульетте. Они мечтают о будущем и строят планы на жизнь без опеки родителей. «Эту ночь ты не забудешь никогда!» - однозначный настрой одноклассников. Но у родителей свои взгляды на праздник -«вечеринка которую вы ждали 10 лет» становится настоящей войной поколений. Школа превращается в место боя - сегодня будут расставлены все точки над «и».
Мировая премьера: 9 октября 2014
Релиз от:
    Качество: WEB-DLRip-AVC (исх.WEB-DLRip 1080p)
    Формат: MKV
    Видео кодек: AVC
    Аудио кодек:AC3
    Видео: AVC, 1024x576 (16:9), 2926 kbps, 25 fps, 0,198 bpp
    Аудио: русский / AC3 / 5.1 / 48 kHz / 384 kbps / 16 bit ||


Код:

---[Information] [31.10.2014 5:16:23] x264 [info]: frame I:1074  Avg QP:14.95  size: 87014  PSNR Mean Y:48.60 U:51.03 V:50.64 Avg:49.20 Global:48.67
---[Information] [31.10.2014 5:16:23] x264 [info]: frame P:36948 Avg QP:18.39  size: 28173  PSNR Mean Y:45.67 U:48.75 V:48.24 Avg:46.38 Global:45.86
---[Information] [31.10.2014 5:16:23] x264 [info]: frame B:100521 Avg QP:20.88  size:  8877  PSNR Mean Y:45.10 U:48.98 V:48.33 Avg:45.93 Global:45.21
---[Information] [31.10.2014 5:16:23] x264 [info]: consecutive B-frames:  2.9%  5.0%  6.6% 68.3%  5.7%  6.2%  0.8%  3.4%  0.2%  0.3%  0.6%

Код:

General
Unique ID                                : 252066065733354303258529193529209795777 (0xBDA2288CA37BC06ABD75E4C2622434C1)
Complete name                            : D:\рипы От R.G. PiratFilms\Vipusknoy.2014.WEB DLRip-AVC.by.White Smoke.R.G.PiratFilms.mkv
Format                                   : Matroska
Format version                           : Version 4 / Version 2
File size                                : 2.14 GiB
Duration                                 : 1h 32mn
Overall bit rate                         : 3 312 Kbps
Movie name                               : EVO
Encoded date                             : UTC 2014-10-31 05:30:22
Writing application                      : mkvmerge v6.8.0 ('Theme for Great Cities') 64bit built on Mar  2 2014 21:34:26
Writing library                          : libebml v1.3.0 + libmatroska v1.4.1

Video
ID                                       : 1
Format                                   : AVC
Format/Info                              : Advanced Video Codec
Format profile                           : High@L4.1
Format settings, CABAC                   : Yes
Format settings, ReFrames                : 12 frames
Codec ID                                 : V_MPEG4/ISO/AVC
Duration                                 : 1h 32mn
Bit rate                                 : 2 926 Kbps
Width                                    : 1 024 pixels
Height                                   : 576 pixels
Display aspect ratio                     : 16:9
Frame rate                               : 25.000 fps
Color space                              : YUV
Chroma subsampling                       : 4:2:0
Bit depth                                : 8 bits
Scan type                                : Progressive
Bits/(Pixel*Frame)                       : 0.198
Stream size                              : 1.85 GiB (86%)
Writing library                          : x264 core 142 r2431 ac76440
Encoding settings                        : cabac=1 / ref=12 / deblock=1:-3:-3 / analyse=0x3:0x113 / me=umh / subme=9 / psy=1 / psy_rd=1.00:0.00 / mixed_ref=1 / me_range=32 / chroma_me=1 / trellis=1 / 8x8dct=1 / cqm=0 / deadzone=21,11 / fast_pskip=1 / chroma_qp_offset=-2 / threads=12 / lookahead_threads=3 / sliced_threads=0 / nr=0 / decimate=1 / interlaced=0 / bluray_compat=0 / constrained_intra=0 / bframes=10 / b_pyramid=2 / b_adapt=2 / b_bias=10 / direct=1 / weightb=0 / open_gop=0 / weightp=2 / keyint=250 / keyint_min=25 / scenecut=40 / intra_refresh=0 / rc_lookahead=40 / rc=2pass / mbtree=1 / bitrate=2926 / ratetol=1.0 / qcomp=0.65 / qpmin=0 / qpmax=69 / qpstep=4 / cplxblur=20.0 / qblur=0.5 / ip_ratio=1.40 / aq=1:1.00
Language                                 : English
Default                                  : Yes
Forced                                   : No

Audio
ID                                       : 2
Format                                   : AC-3
Format/Info                              : Audio Coding 3
Mode extension                           : CM (complete main)
Codec ID                                 : A_AC3
Duration                                 : 1h 32mn
Bit rate mode                            : Constant
Bit rate                                 : 384 Kbps
Channel(s)                               : 6 channels
Channel positions                        : Front: L C R, Side: L R, LFE
Sampling rate                            : 48.0 KHz
Bit depth                                : 16 bits
Compression mode                         : Lossy
Stream size                              : 254 MiB (12%)
Language                                 : Russian
Default                                  : Yes
Forced                                   : No


Скриншоты:



piratbit.pw



Скачать Выпускной через торрент http://pic.kartinco.top/images/7/3eoyb.jpg Скачать фильм Выпускной через торрент бесплантно в хорошем качестве Описание: Ученики 11 «А» готовятся к Выпускному по-разному: рэперы снимают клип к альбому, главный дебошир закупает алкоголь, девственник ... 8.8 10 32
Info! Золотая раздача, скачанное не засчитывается.
Торрент: Зарегистрирован [2014-10-31 06:21] · скачан: 1 631 раз
Статус: √ проверено
Размер: 2.14 GB
Как cкачать? Как скачать Выпускной через торрент | qTorrent

28-11-2019 20:33  

Отключить всю рекламу на сайте

07-11-2014 19:10 Выпускной Скачать торрент  

посмотрим...посмотримpiratbit.pw



    Дорогой пользователь! Огромная просьба, поблагодарите релизера, оцените раздачу и оставьте свои комментарий, если Вы скачали Выпускной через торрент бесплатно! Внесите свою лепту в развитие PiratBit!
    Комментировать посты могут только пользователи прошедшие не сложную регистрацию
    Показать сообщения:    

    Выпускной через торрент
    Скачать бесплатно Выпускной
    Выпускной скачать торрент
    Выпускной смотреть онлайн
    Cкачать фильм Выпускной бесплатно
    Выпускной скачать торрент в хорошем качестве
    Выпускной смотреть онлайн бесплатно в хорошем качестве


    Вы не можете начинать темы
    Вы не можете отвечать на сообщения
    Вы не можете редактировать свои сообщения
    Вы не можете удалять свои сообщения
    Вы не можете голосовать в опросах
    Вы не можете прикреплять файлы к сообщениям
    Вы можете скачивать файлы