Ссылка на приватное зеркало всего за 1$. Внимание количество ограничено!!!

iTunes

iTunes

iTunes

1

iTunes

iTunes

iTunes

iTunes

iTunes

30
pack

$ от Little Big

ВАЖНО

!!Акция!!

Alien_RageХит недели

RePack

Resident Evil 21

ИГРА 18+

pack

RePack

jed

!!Акция!!

Alien_Rage

RePack

fifa19

RePack

Assassins Creed: Odyssey

RePack

NEED FOR SPEED™ PAYBACK

4 сезон

9 сезон

Бесстыжие 9 сезон

Все сериалы

все сериалы на PB.wtf

RePack

FAR CRY 5
  

Класс коррекции (Иван И. Твердовский) [2014, Россия, драма, DVDRip, Лицензия] piratbit.pw

Класс коррекции через торрент piratbit.pw

Размер: 1.37 GB | Добавлен: 5 лет 8 мес. назад | Торрент скачан:865 раз
Скачать  

30-10-2014 21:30 Класс коррекции Скачать торрент  

Класс коррекции

Год выпуска: 2014
Страна: Россия
Жанр: драма
Продолжительность: 01:28:35
Перевод: Лицензия
Субтитры: Отсутствует
Режиссер: Иван И. Твердовский
В ролях:


Мария Поезжаева (Лена Чехова), Никита Кукушкин (Мишка), Филипп Авдеев (Антон Соболев), Ольга Лапшина (Полина Григорьевна, мама Антона), Наталья Павленкова (Светлана Викторовна, мама Лены), Юлия Серина (Витька), Артем Маркарьян (Митька), Мария Урядова (Оля), Наталья Домерецкая (Тереза Павловна Кузнецова, директор школы), Ирина Вилкова (Людмила Николаевна, классный руководитель), Елена Нестерова (учитель математики), Марина Николаева (Елена Викторовна, завуч)

Описание:
Класс коррекции - это гетто для неудобных подростков? Или лучшее на свете место для рождения первой любви...

Рейтинг:
Бюджет: $1 500 000
Качество: DVDRip
Формат: AVI
Видео кодек:XviD
Аудио кодек:AC3
Видео: XviD, 720x400 (16:9), 1751 kbps, 25 fps, 0,243 bpp
Аудио: AC3 / 5.1 / 48 kHz / 448 kbps / 16 bit

General
Complete name : D:\Users\_KaisiK_\uTorrent\КИНО\Klass.korrekcii.2014.O.DVDRip.1400Mb.avi
Format : AVI
Format/Info : Audio Video Interleave
File size : 1.37 GiB
Duration : 1h 28mn
Overall bit rate : 2 209 Kbps
Writing application : VirtualDubMod 1.5.10.3 | www.virtualdub-fr.org || (build 2550/release)
Writing library : VirtualDubMod build 2550/release

Video
ID : 0
Format : MPEG-4 Visual
Format profile : Advanced Simple@L5
Format settings, BVOP : 2
Format settings, QPel : No
Format settings, GMC : No warppoints
Format settings, Matrix : Default (MPEG)
Codec ID : XVID
Codec ID/Hint : XviD
Duration : 1h 28mn
Bit rate : 1 752 Kbps
Width : 720 pixels
Height : 400 pixels
Display aspect ratio : 16:9
Frame rate : 25.000 fps
Color space : YUV
Chroma subsampling : 4:2:0
Bit depth : 8 bits
Scan type : Progressive
Compression mode : Lossy
Bits/(Pixel*Frame) : 0.243
Stream size : 1.08 GiB (79%)
Writing library : XviD 1.2.1 (UTC 2008-12-04)

Audio
ID : 1
Format : AC-3
Format/Info : Audio Coding 3
Mode extension : CM (complete main)
Codec ID : 2000
Duration : 1h 28mn
Bit rate mode : Constant
Bit rate : 448 Kbps
Channel(s) : 6 channels
Channel positions : Front: L C R, Side: L R, LFE
Sampling rate : 48.0 KHz
Bit depth : 16 bits
Compression mode : Lossy
Stream size : 284 MiB (20%)
Alignment : Split accross interleaves
Interleave, duration : 40 ms (1.00 video frame)
Interleave, preload duration : 500 ms

[/code]
piratbit.pw



Скачать Класс коррекции через торрент http://i67.fastpic.ru/big/2014/1031/d2/aede3224050890765ab98608101546d2.jpg Скачать фильм Класс коррекции через торрент бесплантно в хорошем качестве Описание: Класс коррекции - это гетто для неудобных подростков? Или лучшее на свете место для рождения первой любви...Рейтинг: Бюджет: $1 ... 9.7 10 18
Торрент: Зарегистрирован [2014-10-30 21:30] · скачан: 865 раз
Статус: √ проверено
Размер: 1.37 GB
Как cкачать? Как скачать Класс коррекции через торрент | qTorrent

% Раздел Тема Автор DL S | L
Наши новые фильмы 2014 [ 1.43 GB ] Класс коррекции [2014 WEB-DLRip] coc900 Скачать
1 | 0
Наши фильмы (DVD фильмы) [ 4.1 GB ] Класс коррекции [2014 DVD5] R5 voovaz Скачать
2 | 0


Последний раз редактировалось: _KaisiK_ (2014-12-23 10:50), всего редактировалось 1 раз

28-11-2019 20:33  

Отключить всю рекламу на сайте

31-10-2014 23:36 Класс коррекции Скачать торрент  

Бреееед полнейший.piratbit.pw



    Дорогой пользователь! Огромная просьба, поблагодарите релизера, оцените раздачу и оставьте свои комментарий, если Вы скачали Класс коррекции через торрент бесплатно! Внесите свою лепту в развитие PiratBit!
    Комментировать посты могут только пользователи прошедшие не сложную регистрацию
    Показать сообщения:    

    Класс коррекции через торрент
    Скачать бесплатно Класс коррекции
    Класс коррекции скачать торрент
    Класс коррекции смотреть онлайн
    Cкачать фильм Класс коррекции бесплатно
    Класс коррекции скачать торрент в хорошем качестве
    Класс коррекции смотреть онлайн бесплатно в хорошем качестве


    Вы не можете начинать темы
    Вы не можете отвечать на сообщения
    Вы не можете редактировать свои сообщения
    Вы не можете удалять свои сообщения
    Вы не можете голосовать в опросах
    Вы не можете прикреплять файлы к сообщениям
    Вы можете скачивать файлы