Ссылка на приватное зеркало нашего сайта всего за 1$. Внимание количество ограничено!!!

2 сезон

iTunes

1 сезон

1

iTunes

iTunes

iTunes

1 сезон

RePack

30

ИГРА 18+

pack

ВАЖНО

!!Акция!!

Alien_RageХит недели

RePack

MK11
pack

Забери бонус

RePack

jed

!!Акция!!

Alien_Rage

RePack

fifa19

RePack

Assassins Creed: Odyssey

RePack

NEED FOR SPEED™ PAYBACK

4 сезон

9 сезон

Бесстыжие 9 сезон

Все сериалы

все сериалы на PB.wtf

RePack

FAR CRY 5
  

Выпускной (Всеволод Бродский) [2014, Россия, комедия, WEB-DLRip] piratbit.pw

Выпускной через торрент piratbit.pw

Размер: 700 MB | Добавлен: 5 лет 11 мес. назад | Торрент скачан:2067 раз
Скачать  

30-10-2014 18:42 Выпускной Скачать торрент  

Выпускной

Год выпуска: 2014
Страна: Россия
Жанр: комедия
Продолжительность: 01:32:21
Перевод: Не требуется
Режиссер: Всеволод Бродский
В ролях: Виктор Грудев (Демьян), Кристина Исайкина (Настя), Сергей Походаев (Сопляк), Сергей Бурунов (отец Демьяна), Евгения Лютая (мать Демьяна), Константин Еремеев (отец Насти), Олеся Поташинская (мать Насти), Никита Павленко (Гнилой), Яна Енжаева (Маша Шалаева), Тимофей Зайцев (Корчагин), Александра Макарская (Жаба), Борис Эстрин (Жабин)
Описание:
Ученики 11 «А» готовятся к Выпускному по-разному: рэперы снимают клип к альбому, главный дебошир закупает алкоголь, девственник готовится к первому сексу, а влюбленный Ромео собирается надеть обручальное кольцо своей Джульетте. Они мечтают о будущем и строят планы на жизнь без опеки родителей. «Эту ночь ты не забудешь никогда!» - однозначный настрой одноклассников. Но у родителей свои взгляды на праздник -«вечеринка которую вы ждали 10 лет» становится настоящей войной поколений. Школа превращается в место боя - сегодня будут расставлены все точки над «и».
Рейтинг:

Качество: WEB-DLRip
Формат: AVI
Видео кодек: XviD
Аудио кодек:AC3
Видео: XviD, 640x352 (16:9), 922 kbps, 25 fps, 0,164 bpp
Аудио: AC3 / 2.0 / 48 kHz / 128 kbps / 16 bit

General
Complete name : D:\Торенты\V1puskn0y.2014.O.WEB-DLRip.700Mb.avi
Format : AVI
Format/Info : Audio Video Interleave
File size : 700 MiB
Duration : 1h 32mn
Overall bit rate : 1 060 Kbps
Writing application : VirtualDubMod 1.5.10.2 (build 2540/release)
Writing library : VirtualDubMod build 2540/release

Video
ID : 0
Format : MPEG-4 Visual
Format profile : Advanced Simple@L5
Format settings, BVOP : 2
Format settings, QPel : No
Format settings, GMC : No warppoints
Format settings, Matrix : Default (MPEG)
Codec ID : XVID
Codec ID/Hint : XviD
Duration : 1h 32mn
Bit rate : 922 Kbps
Width : 640 pixels
Height : 352 pixels
Display aspect ratio : 16:9
Frame rate : 25.000 fps
Color space : YUV
Chroma subsampling : 4:2:0
Bit depth : 8 bits
Scan type : Progressive
Compression mode : Lossy
Bits/(Pixel*Frame) : 0.164
Stream size : 609 MiB (87%)
Writing library : XviD 1.2.1 (UTC 2008-12-04)

Audio
ID : 1
Format : AC-3
Format/Info : Audio Coding 3
Mode extension : CM (complete main)
Codec ID : 2000
Duration : 1h 32mn
Bit rate mode : Constant
Bit rate : 128 Kbps
Channel(s) : 2 channels
Channel positions : Front: L R
Sampling rate : 48.0 KHz
Bit depth : 16 bits
Compression mode : Lossy
Stream size : 84.6 MiB (12%)
Alignment : Split accross interleaves
Interleave, duration : 40 ms (1.00 video frame)
Interleave, preload duration : 500 ms
piratbit.pw



Скачать Выпускной через торрент http://i65.fastpic.ru/big/2014/1030/4e/ede99aa183bd6ab3f500bb44dc3f124e.jpg Скачать фильм Выпускной через торрент бесплантно в хорошем качестве Описание: Ученики 11 «А» готовятся к Выпускному по-разному: рэперы снимают клип к альбому, главный дебошир закупает алкоголь, девственник ... 8.5 10 32
Торрент: Зарегистрирован [2014-10-30 18:42] · скачан: 2 067 раз
Статус: √ проверено
Размер: 700 MB
Как cкачать? Как скачать Выпускной через торрент | qTorrent

% Раздел Тема Автор DL S | L
Фильмы [HD 720p, 1080p] (Хороший звук DUB, MVO) [ 7.75 GB ] Выпускной / Prom Night [2008 BDRip 1080p] MVO Расширенная версия Леонид Ильич Скачать
1 | 0
Порно фильмы с сюжетом [ 935 MB ] Выпускной вечер / Prom Night [2018 18+ Teens Feature Gangbang DVDRip] Pir@tya2010 Скачать
2 | 0
T Фильмы (мультфильмы) cо спонсором показа (Новинки AVI/MKV) [ 1.37 GB ] Убить выпускной / F the Prom [2017 WEB-DLRip Любительский ] oleg8 Скачать
1 | 0
Наши новые фильмы 2014 [ 1.37 GB ] Выпускной [2014 WEB-DLRip] Ворон Скачать
1 | 0
Наши фильмы (HD, WEB-DL 720p, 1080p) [ 2.81 GB ] Выпускной [2014 WEB-DL 720p] || NarutoSasuke Скачать
1 | 0
Фильмы 2014 [DVDrip, WEB-DLRip, HDrip] [ 1.37 GB ] Выпускной экзамен / À toute épreuve [2014 HDRip Ворон Скачать
1 | 0
Наши новые фильмы 2014 [ 2.14 GB ] Выпускной [2014 Россия WEB-DLRip-AVC] ] От R.G. PiratFilms White Smoke Скачать
1 | 0

28-11-2019 20:33  

Отключить всю рекламу на сайте

31-10-2014 01:34 Выпускной Скачать торрент  

:jest3: Какая ..., это полный ... . За то может нынешнее поколение посмотрят на себя с музыкальной стороны, реперы недоделанные, самое печально, что такие клоуны и в жизни и считают, что это круто piratbit.pw



02-11-2014 05:53 Выпускной Скачать торрент  

Raven, А когда будет ДВД рип ? не подскажите? У нас выборыpiratbit.pw



03-11-2014 16:21 Выпускной Скачать торрент  

Жесть, еле осилил до конца досмотреть, всё ждал что вот вот что-то интересное случиться но увы, интересные идеи к финалу сдулись окончательно.piratbit.pw



05-11-2014 04:26 Выпускной Скачать торрент  

Никогда не любит отечественные фильмы, но этот понравился))piratbit.pw



10-12-2014 20:44 Выпускной Скачать торрент  

во, точно это фильм для туалетов, смотреть его в сортире, когда срёшь.piratbit.pw



    Дорогой пользователь! Огромная просьба, поблагодарите релизера, оцените раздачу и оставьте свои комментарий, если Вы скачали Выпускной через торрент бесплатно! Внесите свою лепту в развитие PiratBit!
    Комментировать посты могут только пользователи прошедшие не сложную регистрацию
    Показать сообщения:    

    Выпускной через торрент
    Скачать бесплатно Выпускной
    Выпускной скачать торрент
    Выпускной смотреть онлайн
    Cкачать фильм Выпускной бесплатно
    Выпускной скачать торрент в хорошем качестве
    Выпускной смотреть онлайн бесплатно в хорошем качестве


    Вы не можете начинать темы
    Вы не можете отвечать на сообщения
    Вы не можете редактировать свои сообщения
    Вы не можете удалять свои сообщения
    Вы не можете голосовать в опросах
    Вы не можете прикреплять файлы к сообщениям
    Вы можете скачивать файлы