1 сезон

1 сезон

iTunes

1

iTunes

Кинопоиск HD

iTunes

13

1 сезон

RePack

30

Deluxe

ВАЖНО

ИГРА 18+

pack

RePack

MK11
pack

Легкие деньги

RePack

jed

RePack

fifa19

RePack

RDR2

RePack

NEED FOR SPEED™ PAYBACK

4 сезон

9 сезон

Бесстыжие 9 сезон

Все сериалы

все сериалы на PB.wtf

RePack

FAR CRY 5
  
Magnet ссылка

Отступники / The Departed (Мартин Скорсезе / Martin Scorsese) [2006, США, Гонконг, триллер, драма, криминал, BDRip-AVC] DUB Лицензия piratbit.pw

Отступники через торрент piratbit.pw

Размер: 4.11 GB | Добавлен: 6 лет 6 мес. назад | Торрент скачан:570 раз
Скачать  

30-10-2014 10:19 Отступники Скачать торрент  

Отступники / The Departed«Свой среди чужих»
Год выпуска: 2006
Страна: США, Гонконг
Жанр: триллер, драма, криминал
Продолжительность: 02:31:25
Перевод: Дубляж - [Лицензия]
Субтитры: Русские, английские
Режиссер: Мартин Скорсезе / Martin Scorsese
В ролях:


Леонардо ДиКаприо (Billy), Мэтт Дэймон (Colin Sullivan), Джек Николсон (Frank Costello), Марк Уолберг (Dignam), Мартин Шин (Queenan), Рэй Уинстон (Mr. French), Вера Фармига (Madolyn), Энтони Андерсон (Trooper Brown), Алек Болдуин (Ellerby), Кевин Корригэн (Cousin Sean), Джеймс Бэдж Дэйл (Trooper Barrigan), Дэвид О’Хара (Fitzy)

Описание:
Два лучших выпускника полицейской академии оказались по разные стороны баррикады: один из них - агент мафии в рядах правоохранительных органов, другой - «крот», внедрённый в мафию. Каждый считает своим долгом обнаружить и уничтожить противника, но постоянная жизнь в искажённых реалиях меняет внутренний мир героев.

Рейтинг:
Бюджет: $90 000 000
MPAA: R - Лицам до 17 лет обязательно присутствие взрослого
Качество: BDRip-AVC
Формат: MKV
Видео кодек:AVC
Аудио кодек:AC3
Видео: AVC, 1024x426 (2.40:1), 1391 kbps, 23,976 fps, 0,133 bpp
Аудио №1: русский / AC3 / 5.1 / 48 kHz / 384 kbps / 16 bit |Дублированный|
Аудио №2: русский / AC3 / 5.1 / 48 kHz / 384 kbps / 16 bit |Профессиональный двухголосый [Петр Гланц и Инна Королева]|
Аудио №3: русский / AC3 / 2.0 / 48 kHz / 192 kbps / 16 bit |Профессиональный двухголосый [REN-TV]|
Аудио №4: русский / AC3 / 5.1 / 48 kHz / 384 kbps / 16 bit |Авторский [Андрей Гаврилов]|
Аудио №5: английский / AC3 / 5.1 / 48 kHz / 384 kbps / 16 bit|оригинал|

Отдельно:
Аудио №6: русский / AC3 / 5.1 / 48 kHz / 384 kbps / 16 bit |Авторский [Юрий Немахов]|
Аудио №7: русский / AC3 / 5.1 / 48 kHz / 384 kbps / 16 bit |Любительский одноголосый [zamez]|


General
Unique ID : 187912886800115654337861139458017480625 (0x8D5EB49FBDC76A5DA5358DE233984FB1)
Complete name : D:\Users\_KaisiK_\uTorrent\КИНО\The.Departed.2006.x264.BDRip-AVC.0ptimus\The.Departed.2006.x264.BDRip-AVC.0ptimus.mkv
Format : Matroska
Format version : Version 2
File size : 3.30 GiB
Duration : 2h 31mn
Overall bit rate : 3 122 Kbps
Movie name : Отступники | The Departed [2006] -=BDRip (AVC) by 0ptimus =-
Encoded date : UTC 2014-03-29 06:47:52
Writing application : mkvmerge v6.6.0 ('The Edge Of The In Between') built on Dec 1 2013 17:55:00
Writing library : libebml v1.3.0 + libmatroska v1.4.1

Video
ID : 1
Format : AVC
Format/Info : Advanced Video Codec
Format profile : High@L4.1
Format settings, CABAC : Yes
Format settings, ReFrames : 9 frames
Codec ID : V_MPEG4/ISO/AVC
Duration : 2h 31mn
Bit rate : 1 391 Kbps
Width : 1 024 pixels
Height : 426 pixels
Display aspect ratio : 2.40:1
Frame rate : 23.976 fps
Color space : YUV
Chroma subsampling : 4:2:0
Bit depth : 8 bits
Scan type : Progressive
Bits/(Pixel*Frame) : 0.133
Stream size : 1.41 GiB (43%)
Title : Rip by 0ptimus
Writing library : x264 core 133 r2334 a3ac64b
Encoding settings : cabac=1 / ref=9 / deblock=1:-3:-3 / analyse=0x3:0x113 / me=umh / subme=11 / psy=1 / psy_rd=1.00:0.20 / mixed_ref=1 / me_range=32 / chroma_me=1 / trellis=2 / 8x8dct=1 / cqm=0 / deadzone=21,11 / fast_pskip=0 / chroma_qp_offset=-3 / threads=4 / lookahead_threads=1 / sliced_threads=0 / nr=0 / decimate=0 / interlaced=0 / bluray_compat=0 / constrained_intra=0 / bframes=11 / b_pyramid=2 / b_adapt=2 / b_bias=0 / direct=3 / weightb=1 / open_gop=0 / weightp=2 / keyint=240 / keyint_min=23 / scenecut=40 / intra_refresh=0 / rc_lookahead=40 / rc=2pass / mbtree=0 / bitrate=1391 / ratetol=1.0 / qcomp=0.60 / qpmin=0 / qpmax=69 / qpstep=4 / cplxblur=20.0 / qblur=0.5 / vbv_maxrate=50000 / vbv_bufsize=50000 / nal_hrd=none / ip_ratio=1.40 / pb_ratio=1.30 / aq=1:1.00
Language : English
Default : Yes
Forced : Yes

Audio #1
ID : 2
Format : AC-3
Format/Info : Audio Coding 3
Mode extension : CM (complete main)
Codec ID : A_AC3
Duration : 2h 31mn
Bit rate mode : Constant
Bit rate : 384 Kbps
Channel(s) : 6 channels
Channel positions : Front: L C R, Side: L R, LFE
Sampling rate : 48.0 KHz
Bit depth : 16 bits
Compression mode : Lossy
Stream size : 416 MiB (12%)
Title : Дублированный AC3 5.1 @ 384 kbps
Language : Russian
Default : Yes
Forced : Yes

Audio #2
ID : 3
Format : AC-3
Format/Info : Audio Coding 3
Mode extension : CM (complete main)
Codec ID : A_AC3
Duration : 2h 31mn
Bit rate mode : Constant
Bit rate : 384 Kbps
Channel(s) : 6 channels
Channel positions : Front: L C R, Side: L R, LFE
Sampling rate : 48.0 KHz
Bit depth : 16 bits
Compression mode : Lossy
Stream size : 416 MiB (12%)
Title : Двухголосый [Петр Гланц и Инна Королева] AC3 5.1 @ 384 kbps
Language : Russian
Default : No
Forced : No

Audio #3
ID : 4
Format : AC-3
Format/Info : Audio Coding 3
Mode extension : CM (complete main)
Codec ID : A_AC3
Duration : 2h 31mn
Bit rate mode : Constant
Bit rate : 192 Kbps
Channel(s) : 2 channels
Channel positions : Front: L R
Sampling rate : 48.0 KHz
Bit depth : 16 bits
Compression mode : Lossy
Stream size : 208 MiB (6%)
Title : Двухголосый [REN-TV] AC3 2.0 @ 192 kbps
Language : Russian
Default : No
Forced : No

Audio #4
ID : 5
Format : AC-3
Format/Info : Audio Coding 3
Mode extension : CM (complete main)
Codec ID : A_AC3
Duration : 2h 31mn
Bit rate mode : Constant
Bit rate : 384 Kbps
Channel(s) : 6 channels
Channel positions : Front: L C R, Side: L R, LFE
Sampling rate : 48.0 KHz
Bit depth : 16 bits
Compression mode : Lossy
Stream size : 416 MiB (12%)
Title : Авторский [Андрей Гаврилов] AC3 5.1 @ 384 kbps
Default : No
Forced : No

Audio #5
ID : 6
Format : AC-3
Format/Info : Audio Coding 3
Mode extension : CM (complete main)
Codec ID : A_AC3
Duration : 2h 31mn
Bit rate mode : Constant
Bit rate : 384 Kbps
Channel(s) : 6 channels
Channel positions : Front: L C R, Side: L R, LFE
Sampling rate : 48.0 KHz
Bit depth : 16 bits
Compression mode : Lossy
Stream size : 416 MiB (12%)
Title : AC3 5.1 @ 384 kbps
Language : English
Default : No
Forced : No

Text #1
ID : 7
Format : UTF-8
Codec ID : S_TEXT/UTF8
Codec ID/Info : UTF-8 Plain Text
Language : Russian
Default : No
Forced : No

Text #2
ID : 8
Format : UTF-8
Codec ID : S_TEXT/UTF8
Codec ID/Info : UTF-8 Plain Text
Title : REN-313
Language : Russian
Default : No
Forced : No

Text #3
ID : 9
Format : UTF-8
Codec ID : S_TEXT/UTF8
Codec ID/Info : UTF-8 Plain Text
Title : sunny-sko
Language : Russian
Default : No
Forced : No

Text #4
ID : 10
Format : UTF-8
Codec ID : S_TEXT/UTF8
Codec ID/Info : UTF-8 Plain Text
Title : SDH
Language : English
Default : No
Forced : No

Menu
00:00:00.000 : en:1. Francis Costello
00:08:21.626 : en:2. Wellcome to The Special Investigation Unit
00:17:36.347 : en:3. Serve The Commonwealth
00:27:03.330 : en:4. Madolyn
00:32:20.981 : en:5. Costello & Costigan
00:42:08.568 : en:6. Sullivan's Unit
00:51:27.584 : en:7. How Billy Feels
00:59:47.918 : en:8. The Transaction
01:09:55.691 : en:9. Two Guys From Providence
01:19:32.393 : en:10. The Envelope
01:30:23.126 : en:11. Nation of Rats
01:41:43.222 : en:12. 344 Washington Street
01:49:01.785 : en:13. On The Phone
01:57:32.629 : en:14. Sheffield Shootout
02:06:07.435 : en:15. Play Me Now
02:16:25.094 : en:16. Face to Face
02:24:50.765 : en:17. End Credits

[/code]
piratbit.pw



Скачать Отступники через торрент http://i66.fastpic.ru/big/2014/1030/02/0794a1e28af0e37cc5642b433aaa4102.png Скачать фильм Отступники через торрент бесплантно в хорошем качестве Описание: Два лучших выпускника полицейской академии оказались по разные стороны баррикады: один из них - агент мафии в рядах ... 10 10 13
Info! Золотая раздача, скачанное не засчитывается.
Торрент: Зарегистрирован [2014-10-30 10:19] · скачан: 570 раз
Статус: √ проверено
Размер: 4.11 GB
Как cкачать? Как скачать Отступники через торрент | UTorrent

% Раздел Тема Автор DL S | L
Фильмы [HD 720p, 1080p] (Хороший звук DUB, MVO) [ 8.74 GB ] Отступники / The Departed [2006 BDRip-HEVC 1080p ] [FR Transfer] AVO [Немахов] +DUB [] bober100 Скачать
1 | 0


Последний раз редактировалось: _KaisiK_ (2014-12-23 10:49), всего редактировалось 1 раз

28-11-2019 20:33  

Отключить всю рекламу на сайте

30-10-2014 11:25 Отступники Скачать торрент  

Если кто-то еще каким-то чудом не посмотрел сие творение - обязательно посмотрите)piratbit.pw



30-10-2014 11:25 Отступники Скачать торрент  

Марк Вальберг?))piratbit.pw



30-10-2014 13:26 Отступники Скачать торрент  

да,фильм отличныйpiratbit.pw



    Дорогой пользователь! Огромная просьба, поблагодарите релизера, оцените раздачу и оставьте свои комментарий, если Вы скачали Отступники через торрент бесплатно! Внесите свою лепту в развитие PiratBit!
    Комментировать посты могут только пользователи прошедшие не сложную регистрацию
    Показать сообщения:    

    Отступники через торрент
    Скачать бесплатно Отступники
    Отступники скачать торрент
    Отступники смотреть онлайн
    Cкачать фильм Отступники бесплатно
    Отступники скачать торрент в хорошем качестве
    Отступники смотреть онлайн бесплатно в хорошем качестве


    Вы не можете начинать темы
    Вы не можете отвечать на сообщения
    Вы не можете редактировать свои сообщения
    Вы не можете удалять свои сообщения
    Вы не можете голосовать в опросах
    Вы не можете прикреплять файлы к сообщениям
    Вы можете скачивать файлы