1 сезон

3 сезон

iTunes

1

iTunes

DUB Netflix

iTunes

13

1 сезон

RePack

30

Deluxe

pack

Легкие деньги

ВАЖНО

ИГРА 18+

pack

RePack

MK11

RePack

jed

RePack

fifa19

RePack

RDR2

RePack

NEED FOR SPEED™ PAYBACK

4 сезон

9 сезон

Бесстыжие 9 сезон

Все сериалы

все сериалы на PB.wtf

RePack

FAR CRY 5

Anonymous, доброе утро, мы не успеваем до 1 числа собрать деньги на оплату серверов, помогите нам пожалуйста в это трудное время. В качестве благодарности мы отключим Вам всю рекламу на сайте (укажите свой ник в строку Ваше имя)!

×
  
Magnet ссылка

Не вижу зла 2 / See No Evil 2 (Джен Соска / Jen Soska, Сильвия Соска / Sylvia Soska) [2014, США, ужасы, HDRip, Любительский (одноголосый) [МЕГАПЫХАРЬ] piratbit.pw

Не вижу зла 2 через торрент piratbit.pw

Размер: 1.27 GB | Добавлен: 6 лет 7 мес. назад | Торрент скачан:308 раз
Скачать  

30-10-2014 01:43 Не вижу зла 2 Скачать торрент  

Не вижу зла 2 / See No Evil 2


  • Год выпуска: 2014
  • Страна: США
  • Жанр: ужасы
  • Продолжительность: 01:30:12
  • Перевод: Любительский (одноголосый) [МЕГАПЫХАРЬ]

  • Режиссер: Джен Соска / Jen Soska, Сильвия Соска / Sylvia Soska
  • В ролях:

    Глен Джейкобс (Jacob Goodnight), Даниэль Харрис (Amy), Кэтрин Изабель (Tamara), Каж-Эрик Эриксен (Seth), Челан Симмонс (Kayla), Грейстон Холт (Will), Ли Мадждуб (Carter), Майкл Эклунд (Holden), Риз Александр (EMT #1), Келли-Рут Мерсье (EMT #2), Линн Коллиар (News Reporter), Нэнси Белл (Jacob's Mother)


  • Кошмар, закончившийся в первом фильме, продолжается: Джейкоб Гуднайт восстает из мертвых в городском морге, после смертельной резни в отеле «Блэкуэлл». В этом зловещем подземном хранилище для мертвых группе студентов придется бороться с невменяемым психопатом, который вновь начинает забирать их одного за другим.
  • Рейтинг:



  • Качество: HDRip
  • Формат: :AVI
  • Видео кодек: XviD
  • Аудио кодек: AC3
  • Видео: 720x400 (16:9), 1809 kbps, 23,976 fps, 0,262 bpp
  • Аудио: 2.0 / 48 kHz / 192 kbps / 16 bit
  • Релиз от: GEKADOL

    Код:

    General
    Complete name                            : I:\See No Evil 2 2014 HRRip XViD.MEGAPYHAR.avi
    Format                                   : AVI
    Format/Info                              : Audio Video Interleave
    File size                                : 1.27 GiB
    Duration                                 : 1h 30mn
    Overall bit rate                         : 2 011 Kbps
    Writing application                      : VirtualDubMod 1.5.10.3 | www.virtualdub-fr.org || (build 2550/release)
    Writing library                          : VirtualDubMod build 2550/release

    Video
    ID                                       : 0
    Format                                   : MPEG-4 Visual
    Format profile                           : Advanced Simple@L5
    Format settings, BVOP                    : 1
    Format settings, QPel                    : Yes
    Format settings, GMC                     : No warppoints
    Format settings, Matrix                  : Default (H.263)
    Codec ID                                 : XVID
    Codec ID/Hint                            : XviD
    Duration                                 : 1h 30mn
    Bit rate                                 : 1 810 Kbps
    Width                                    : 720 pixels
    Height                                   : 400 pixels
    Display aspect ratio                     : 16:9
    Frame rate                               : 23.976 fps
    Color space                              : YUV
    Chroma subsampling                       : 4:2:0
    Bit depth                                : 8 bits
    Scan type                                : Progressive
    Compression mode                         : Lossy
    Bits/(Pixel*Frame)                       : 0.262
    Stream size                              : 1.14 GiB (90%)
    Writing library                          : XviD 73

    Audio
    ID                                       : 1
    Format                                   : AC-3
    Format/Info                              : Audio Coding 3
    Mode extension                           : CM (complete main)
    Codec ID                                 : 2000
    Duration                                 : 1h 30mn
    Bit rate mode                            : Constant
    Bit rate                                 : 192 Kbps
    Channel(s)                               : 2 channels
    Channel positions                        : Front: L R
    Sampling rate                            : 48.0 KHz
    Bit depth                                : 16 bits
    Compression mode                         : Lossy
    Stream size                              : 124 MiB (10%)
    Alignment                                : Split accross interleaves
    Interleave, duration                     : 42 ms (1.00 video frame)
    Interleave, preload duration             : 500 ms


    Скриншоты:



    piratbit.pw



  • Скачать Не вижу зла 2 через торрент http://i63.fastpic.ru/big/2014/1030/00/d9baac0bdfa4d732d8c22859a8a69b00.jpg Скачать фильм Не вижу зла 2 через торрент бесплантно в хорошем качестве qw.png Кошмар, закончившийся в первом фильме, продолжается: Джейкоб Гуднайт восстает из мертвых в городском морге, после смертельной ... 9.5 10 17
    Торрент: Зарегистрирован [2014-10-30 01:43] · скачан: 308 раз
    Статус: T временная
    Размер: 1.27 GB
    Как cкачать? Как скачать Не вижу зла 2 через торрент | UTorrent

    % Раздел Тема Автор DL S | L
    Фильмы 2014 [DVDrip, WEB-DLRip, HDrip] [ 1.86 GB ] Не вижу зла 2 / See No Evil 2 [2014 BDRip-AVC MVO VO] winchester00100010 Скачать
    1 | 0
    Фильмы (Blu-ray, BD-Remux, HDDVD) [ 16.81 GB ] Не вижу зла 2 / See No Evil 2 [2014 BDRemux 1080p] MVO Ворон Скачать
    1 | 0
    Фильмы [HD 720p, 1080p] (Хороший звук DUB, MVO) [ 4.7 GB ] Не вижу зла 2 / See No Evil 2 [2014 BDRip 720p Любительский многоголосый] TeSo33 Скачать
    1 | 0
    Фильмы 2014 [DVDrip, WEB-DLRip, HDrip] [ 1.44 GB ] Не вижу зла 2 / See No Evil 2 [2014 HDRip MVO] Ворон Скачать
    1 | 0

    28-11-2019 20:33  

    Отключить всю рекламу на сайте

    30-10-2014 03:06 Не вижу зла 2 Скачать торрент  

    нормальные такие режиссёры piratbit.pw



    30-10-2014 04:00 Не вижу зла 2 Скачать торрент  

    ахахах 2 соски))))))))))))piratbit.pw



    30-10-2014 06:24 Не вижу зла 2 Скачать торрент  

    И где тут ужасы??? Что первая часть ни о чем, а вторая так тем более, тут и смотреть не надо, что бы это понять.piratbit.pw



    30-10-2014 17:31 Не вижу зла 2 Скачать торрент  

    Ну не надо. Первая часть шикарнаpiratbit.pw



    03-11-2014 16:19 Не вижу зла 2 Скачать торрент  

    Первая намного круче.. эта хреньpiratbit.pw



    05-11-2014 07:49 Не вижу зла 2 Скачать торрент  

    сосок отправить в зрительный зал, по кругу. ужОСС nopiratbit.pw



    30-12-2014 17:55 Не вижу зла 2 Скачать торрент  

    Axion писал(а):

    сосок отправить в зрительный зал, по кругу. ужОСС no

    Мегаэксперимент по обучению предметов режиссуре провалился. После обучения двух сосок было решено - 3 часть будут снимать подгузники.piratbit.pw



      Дорогой пользователь! Огромная просьба, поблагодарите релизера, оцените раздачу и оставьте свои комментарий, если Вы скачали Не вижу зла 2 через торрент бесплатно! Внесите свою лепту в развитие PiratBit!
      Комментировать посты могут только пользователи прошедшие не сложную регистрацию
      Показать сообщения:    

      Не вижу зла 2 через торрент
      Скачать бесплатно Не вижу зла 2
      Не вижу зла 2 скачать торрент
      Не вижу зла 2 смотреть онлайн
      Cкачать фильм Не вижу зла 2 бесплатно
      Не вижу зла 2 скачать торрент в хорошем качестве
      Не вижу зла 2 смотреть онлайн бесплатно в хорошем качестве


      Вы не можете начинать темы
      Вы не можете отвечать на сообщения
      Вы не можете редактировать свои сообщения
      Вы не можете удалять свои сообщения
      Вы не можете голосовать в опросах
      Вы не можете прикреплять файлы к сообщениям
      Вы можете скачивать файлы