1 сезон

3 сезон

iTunes

1

iTunes

DUB Netflix

iTunes

13

1 сезон

RePack

30

Deluxe

pack

Легкие деньги

ВАЖНО

ИГРА 18+

pack

RePack

MK11

RePack

jed

RePack

fifa19

RePack

RDR2

RePack

NEED FOR SPEED™ PAYBACK

4 сезон

9 сезон

Бесстыжие 9 сезон

Все сериалы

все сериалы на PB.wtf

RePack

FAR CRY 5

Anonymous, доброе утро, мы не успеваем до 1 числа собрать деньги на оплату серверов, помогите нам пожалуйста в это трудное время. В качестве благодарности мы отключим Вам всю рекламу на сайте (укажите свой ник в строку Ваше имя)!

×
  
Magnet ссылка

Среди живущих / Aux yeux des vivants (Александр Бустильо / Alexandre Bustillo, Жюльен Мори / Julien Maury) [2014, Франция, ужасы, триллер, DVDRip, Любительский (одноголосый) [Xixidok] piratbit.pw

Среди живущих через торрент piratbit.pw

Размер: 712 MB | Добавлен: 6 лет 7 мес. назад | Торрент скачан:142 раза
Скачать  

29-10-2014 18:55 Среди живущих Скачать торрент  

Среди живущих / Aux yeux des vivants

Год выпуска: 2014
Страна: Франция
Жанр: ужасы, триллер
Продолжительность: 01:24:15
Перевод: Любительский (одноголосый) [Xixidok]
Режиссер: Александр Бустильо / Alexandre Bustillo, Жюльен Мори / Julien Maury
В ролях: Энн Маривин (Julia), Тео Фернандез (Victor), Франсис Рено (Isaac Faucheur), Захари Шассерьо (Tom), Дэмиен Фердель (Dan), Фабьен Жегуде (Klarence), Николас Жиро (Nathan), Беатрис Даль (Jeanne Faucheur), Хлоя Куллу (Mila), Доминик Фрот (Mlle Duroche), Эммануэль Ланци (Le père de Tom), Sidwell Weber
Описание:
Фильм о трех школьниках, которые решили прогулять уроки ряди того, чтобы побродить по заброшенному парку аттракционов. Посреди этой разрухи детишки неожиданно увидели мужчину в маске, который тащил за собой женщину на цепи. К несчастью для ребят, незнакомец их тоже увидел.
Рейтинг:

Качество: DVDRip
Формат: AVI
Видео кодек: XviD
Аудио кодек:MP3
Видео: XviD, 720x304 (2.35:1), 980 kbps, 25 fps, 0,179 bpp
Аудио: MP3 / 2.0 / 44 kHz / 192 kbps /

General
Complete name : D:\Торенты\Among.The.Living.2014.Xixidok.avi
Format : AVI
Format/Info : Audio Video Interleave
File size : 712 MiB
Duration : 1h 24mn
Overall bit rate : 1 182 Kbps
Writing application : VirtualDubMod 1.5.10.3 (build 2550/release)
Writing library : VirtualDubMod build 2550/release

Video
ID : 0
Format : MPEG-4 Visual
Format profile : Simple@L3
Format settings, BVOP : No
Format settings, QPel : No
Format settings, GMC : No warppoints
Format settings, Matrix : Default (H.263)
Codec ID : XVID
Codec ID/Hint : XviD
Duration : 1h 24mn
Bit rate : 980 Kbps
Width : 720 pixels
Height : 304 pixels
Display aspect ratio : 2.35:1
Frame rate : 25.000 fps
Color space : YUV
Chroma subsampling : 4:2:0
Bit depth : 8 bits
Scan type : Progressive
Compression mode : Lossy
Bits/(Pixel*Frame) : 0.179
Stream size : 591 MiB (83%)
Writing library : XviD 64

Audio
ID : 1
Format : MPEG Audio
Format version : Version 1
Format profile : Layer 3
Codec ID : 55
Codec ID/Hint : MP3
Duration : 1h 24mn
Bit rate mode : Constant
Bit rate : 192 Kbps
Channel(s) : 2 channels
Sampling rate : 44.1 KHz
Compression mode : Lossy
Stream size : 116 MiB (16%)
Alignment : Split accross interleaves
Interleave, duration : 40 ms (1.00 video frame)
Interleave, preload duration : 500 ms
piratbit.pw



Скачать Среди живущих через торрент http://i65.fastpic.ru/big/2014/1029/a4/ba51c121d6b79736de7d9db6b94deda4.jpg Скачать фильм Среди живущих через торрент бесплантно в хорошем качестве Описание: Фильм о трех школьниках, которые решили прогулять уроки ряди того, чтобы побродить по заброшенному парку аттракционов. Посреди ... 10 10 2
Торрент: Зарегистрирован [2014-10-29 18:55] · скачан: 142 раз
Статус: T временная
Размер: 712 MB
Как cкачать? Как скачать Среди живущих через торрент | UTorrent

28-11-2019 20:33  

Отключить всю рекламу на сайте

    Дорогой пользователь! Огромная просьба, поблагодарите релизера, оцените раздачу и оставьте свои комментарий, если Вы скачали Среди живущих через торрент бесплатно! Внесите свою лепту в развитие PiratBit!
    Комментировать посты могут только пользователи прошедшие не сложную регистрацию
    Показать сообщения:    

    Среди живущих через торрент
    Скачать бесплатно Среди живущих
    Среди живущих скачать торрент
    Среди живущих смотреть онлайн
    Cкачать фильм Среди живущих бесплатно
    Среди живущих скачать торрент в хорошем качестве
    Среди живущих смотреть онлайн бесплатно в хорошем качестве


    Вы не можете начинать темы
    Вы не можете отвечать на сообщения
    Вы не можете редактировать свои сообщения
    Вы не можете удалять свои сообщения
    Вы не можете голосовать в опросах
    Вы не можете прикреплять файлы к сообщениям
    Вы можете скачивать файлы