1 сезон

3 сезон

iTunes

1

iTunes

DUB Netflix

iTunes

13

1 сезон

RePack

30

Deluxe

pack

Легкие деньги

ВАЖНО

ИГРА 18+

pack

RePack

MK11

RePack

jed

RePack

fifa19

RePack

RDR2

RePack

NEED FOR SPEED™ PAYBACK

4 сезон

9 сезон

Бесстыжие 9 сезон

Все сериалы

все сериалы на PB.wtf

RePack

FAR CRY 5

Anonymous, добрый вечер, мы не успеваем до 1 числа собрать деньги на оплату серверов, помогите нам пожалуйста в это трудное время. В качестве благодарности мы отключим Вам всю рекламу на сайте (укажите свой ник в строку Ваше имя)!

×
  
Magnet ссылка

Исчезновение Ленки Вуд / The Disappearance of Lenka Wood (Пол Тантер / Paul Tanter) [2014, Великобритания, криминал, BDRip, Любительский (одноголосый) [den904] piratbit.pw

Исчезновение Ленки Вуд через торрент piratbit.pw

Размер: 1.44 GB | Добавлен: 6 лет 7 мес. назад | Торрент скачан:124 раза
Скачать  

29-10-2014 12:01 Исчезновение Ленки Вуд Скачать торрент  

Исчезновение Ленки Вуд / The Disappearance of Lenka Wood

Год выпуска: 2014
Страна: Великобритания
Жанр: криминал
Продолжительность: 01:13:53
Перевод: Любительский (одноголосый) [den904]
Режиссер: Пол Тантер / Paul Tanter
В ролях: Марк О’Нил (Dexter), Петра Брайант (Lenka), Саймон Филлипс (Jenson), Том Бенедикт Найт (Fedor), Акбар Курта (Yianni), Билли Мюррэй (Draper), Anais Alvarado (Sibel), Ahmet Altunel (Bodyguard 3), Huseyin Aybey (Bodyguard 4), Kadir Basoglu (Bodyguard), Merve Duman (Waiter), Sefa Gümuskanat (Barman)
Описание:
4 июля в день независимости Декстер делает передложение своей невесте Ленке Петрович. Свой медовый месяц молодожены решили провести в Турции. Но однажды, вернувшись вечером домой, Декстер обнаруживает, что его невеста бесследно исчезла. Местная полиция подозревает его самого...
Рейтинг:

Качество: BDRip
Формат: AVI
Видео кодек: XviD
Аудио кодек:MP3
Видео: XviD, 720x304 (2.35:1), 2594 kbps, 23,976 fps, 0,494 bpp
Аудио: MP3 / 2.0 / 44 kHz / 192 kbps /

General
Complete name : D:\Торенты\The Disappearance of Lenka Wood 2014.avi
Format : AVI
Format/Info : Audio Video Interleave
File size : 1.44 GiB
Duration : 1h 13mn
Overall bit rate : 2 796 Kbps
Writing library : VirtualDub build 34753/release

Video
ID : 0
Format : MPEG-4 Visual
Format profile : Advanced Simple@L5
Format settings, BVOP : 2
Format settings, QPel : No
Format settings, GMC : No warppoints
Format settings, Matrix : Default (H.263)
Muxing mode : Packed bitstream
Codec ID : XVID
Codec ID/Hint : XviD
Duration : 1h 13mn
Bit rate : 2 594 Kbps
Width : 720 pixels
Height : 304 pixels
Display aspect ratio : 2.35:1
Frame rate : 23.976 fps
Color space : YUV
Chroma subsampling : 4:2:0
Bit depth : 8 bits
Scan type : Progressive
Compression mode : Lossy
Bits/(Pixel*Frame) : 0.494
Stream size : 1.34 GiB (93%)
Writing library : XviD 1.2.1 (UTC 2008-12-04)

Audio
ID : 1
Format : MPEG Audio
Format version : Version 1
Format profile : Layer 3
Codec ID : 55
Codec ID/Hint : MP3
Duration : 1h 13mn
Bit rate mode : Constant
Bit rate : 192 Kbps
Channel(s) : 2 channels
Sampling rate : 44.1 KHz
Compression mode : Lossy
Stream size : 101 MiB (7%)
Alignment : Split accross interleaves
Interleave, duration : 42 ms (1.00 video frame)
Interleave, preload duration : 500 ms
piratbit.pw



Скачать Исчезновение Ленки Вуд через торрент http://i68.fastpic.ru/big/2014/1029/ad/c63eb739f746efbb81e1cd74eefcd4ad.jpg Скачать фильм Исчезновение Ленки Вуд через торрент бесплантно в хорошем качестве Описание: 4 июля в день независимости Декстер делает передложение своей невесте Ленке Петрович. Свой медовый месяц молодожены решили ... 10 10 2
Торрент: Зарегистрирован [2014-10-29 12:01] · скачан: 124 раз
Статус: T временная
Размер: 1.44 GB
Как cкачать? Как скачать Исчезновение Ленки Вуд через торрент | UTorrent

28-11-2019 20:33  

Отключить всю рекламу на сайте


    Дорогой пользователь! Огромная просьба, поблагодарите релизера, оцените раздачу и оставьте свои комментарий, если Вы скачали Исчезновение Ленки Вуд через торрент бесплатно! Внесите свою лепту в развитие PiratBit!
    Комментировать посты могут только пользователи прошедшие не сложную регистрацию
    Показать сообщения:    

    Исчезновение Ленки Вуд через торрент
    Скачать бесплатно Исчезновение Ленки Вуд
    Исчезновение Ленки Вуд скачать торрент
    Исчезновение Ленки Вуд смотреть онлайн
    Cкачать фильм Исчезновение Ленки Вуд бесплатно
    Исчезновение Ленки Вуд скачать торрент в хорошем качестве
    Исчезновение Ленки Вуд смотреть онлайн бесплатно в хорошем качестве


    Вы не можете начинать темы
    Вы не можете отвечать на сообщения
    Вы не можете редактировать свои сообщения
    Вы не можете удалять свои сообщения
    Вы не можете голосовать в опросах
    Вы не можете прикреплять файлы к сообщениям
    Вы можете скачивать файлы