Ссылка на приватное зеркало всего за 1$. Внимание количество ограничено!!!

iTunes

iTunes

iTunes

1

iTunes

iTunes

iTunes

iTunes

iTunes

30
pack

$ от Little Big

ВАЖНО

!!Акция!!

Alien_RageХит недели

RePack

Resident Evil 21

ИГРА 18+

pack

RePack

jed

!!Акция!!

Alien_Rage

RePack

fifa19

RePack

Assassins Creed: Odyssey

RePack

NEED FOR SPEED™ PAYBACK

4 сезон

9 сезон

Бесстыжие 9 сезон

Все сериалы

все сериалы на PB.wtf

RePack

FAR CRY 5
  

Никто не совершенен / Nessuno è perfetto (Паскуале Феста Кампаниле) [1981 г., комедия, мелодрама, DVDRip, AVO] piratbit.pw

Никто не совершенен через торрент piratbit.pw

Размер: 1.37 GB | Добавлен: 5 лет 8 мес. назад | Торрент скачан:52 раза
Скачать  

29-10-2014 08:16 Никто не совершенен Скачать торрент  

Никто не совершенен / Nessuno è perfetto
Год выпуска: 1981
Страна: Италия
Жанр: комедия, мелодрама
Продолжительность: 01:39:25
Перевод: Авторский (одноголосый закадровый) Мудров Андрей

Режиссер: Паскуале Феста Кампаниле



В ролях: Орнелла Мути, Ренато Поццетто, Феличе Андреази, Массимо Болди, Габриэле Тинти, Лина Волоньги, Франческо Висентин

Описание: Владелец небольшого винного завода, Гуэррино Кастильони (Ренато Поццетто), несколько лет назад похоронивший жену, практически утратил интерес к жизни. Во время одной из бессмысленных ночных поездок по городу он знакомится с очаровательной моделью Шанталь (Орнелла Мути). Молодые люди влюбляются друг в друга и практически сразу женятся. Шанталь помогает Гуэррино вернуть вкус к жизни и начать все сначала, но семейная идиллия длилась недолго. Благодаря проискам бывшей тещи, имеющей свои виды на зятя, Гуэррино узнает, что его прекрасная жена...

Качество: DVDRip
Формат: AVI
Видео кодек: DivX
Аудио кодек: AC3
Видео: 720x384 (1.88:1), 25 fps, DivX Codec 5.2.1 build 1338, 1771 kbps
Аудио#1: 48 kHz, AC3 Dolby Digital, 2/0 (L,R) ch, ~192 kbps




General
Complete name : F:\Nessuno.e.perfetto_1981.avi
Format : AVI
Format/Info : Audio Video Interleave
File size : 1.37 GiB
Duration : 1h 39mn
Overall bit rate : 1 970 Kbps
Writing application : VirtualDubMod 1.5.4.1 (build 2178/release)
Writing library : VirtualDubMod build 2178/release

Video
ID : 0
Format : MPEG-4 Visual
Format settings, BVOP : No
Format settings, QPel : No
Format settings, GMC : No warppoints
Format settings, Matrix : Default (H.263)
Codec ID : DX50
Codec ID/Hint : DivX 5
Duration : 1h 39mn
Bit rate : 1 771 Kbps
Width : 720 pixels
Height : 384 pixels
Display aspect ratio : 1.85:1
Frame rate : 25.000 fps
Color space : YUV
Chroma subsampling : 4:2:0
Bit depth : 8 bits
Scan type : Progressive
Compression mode : Lossy
Bits/(Pixel*Frame) : 0.256
Stream size : 1.23 GiB (90%)
Writing library : DivX 5.2.1 (DrDivX 106) (UTC 2004-09-08)

Audio
ID : 1
Format : AC-3
Format/Info : Audio Coding 3
Mode extension : CM (complete main)
Format settings, Endianness : Big
Codec ID : 2000
Duration : 1h 39mn
Bit rate mode : Constant
Bit rate : 192 Kbps
Channel(s) : 2 channels
Channel positions : Front: L R
Sampling rate : 48.0 KHz
Bit depth : 16 bits
Compression mode : Lossy
Stream size : 137 MiB (10%)
Alignment : Split accross interleaves
Interleave, duration : 96 ms (2.40 video frames)
Interleave, preload duration : 96 ms


Никто не совершенен скачать торрент


piratbit.pw



Скачать Никто не совершенен через торрент http://pic.kartinco.top/images/7/573bm.jpg Скачать фильм Никто не совершенен через торрент бесплантно в хорошем качестве Описание: Владелец небольшого винного завода, Гуэррино Кастильони (Ренато Поццетто), несколько лет назад похоронивший жену, практически ... 10 10 6
Торрент: Зарегистрирован [2014-10-29 08:16] · скачан: 52 раз
Статус: √ проверено
Размер: 1.37 GB
Как cкачать? Как скачать Никто не совершенен через торрент | qTorrent

% Раздел Тема Автор DL S | L
Фильмы с авторской озвучкой [ 1.58 GB ] Никто не совершенен / Nessuno è perfetto [1981 DVDRip-AVC Авторский ] от ExKinoRay dumbia Скачать
2 | 0

28-11-2019 20:33  

Отключить всю рекламу на сайте

    Дорогой пользователь! Огромная просьба, поблагодарите релизера, оцените раздачу и оставьте свои комментарий, если Вы скачали Никто не совершенен через торрент бесплатно! Внесите свою лепту в развитие PiratBit!
    Комментировать посты могут только пользователи прошедшие не сложную регистрацию
    Показать сообщения:    

    Никто не совершенен через торрент
    Скачать бесплатно Никто не совершенен
    Никто не совершенен скачать торрент
    Никто не совершенен смотреть онлайн
    Cкачать фильм Никто не совершенен бесплатно
    Никто не совершенен скачать торрент в хорошем качестве
    Никто не совершенен смотреть онлайн бесплатно в хорошем качестве


    Вы не можете начинать темы
    Вы не можете отвечать на сообщения
    Вы не можете редактировать свои сообщения
    Вы не можете удалять свои сообщения
    Вы не можете голосовать в опросах
    Вы не можете прикреплять файлы к сообщениям
    Вы можете скачивать файлы