Ссылка на приватное зеркало нашего сайта всего за 1$. Внимание количество ограничено!!!

2 сезон

iTunes

1 сезон

1

iTunes

iTunes

iTunes

1 сезон

RePack

30

ИГРА 18+

pack

ВАЖНО

!!Акция!!

Alien_RageХит недели

RePack

MK11
pack

Забери бонус

RePack

jed

!!Акция!!

Alien_Rage

RePack

fifa19

RePack

Assassins Creed: Odyssey

RePack

NEED FOR SPEED™ PAYBACK

4 сезон

9 сезон

Бесстыжие 9 сезон

Все сериалы

все сериалы на PB.wtf

RePack

FAR CRY 5
  

Совсем не простая история (Фёдор Попов) [2014, Драма, комедия, SATRip] piratbit.pw

Совсем не простая история через торрент piratbit.pw

Размер: 1.37 GB | Добавлен: 5 лет 11 мес. назад | Торрент скачан:590 раз
Скачать  

26-10-2014 20:13 Совсем не простая история Скачать торрент  

Совсем не простая история

Год выпуска: 2014
Страна: Россия
Жанр: драма, комедия
Продолжительность: 01:48:48
Перевод: Не требуется
Субтитры: Нет
Режиссер: Федор Попов
В ролях: Даниил Спиваковский (Хип), Алексей Ионов (Старик), Егор Баринов (Сюзечка), Юлия Йенч (Марта), Евгения Крегжде (Ласточкина), Дмитрий Калистратов (Лысый), Анастасия Привалова (соседка обходчицы), Виталий Отинов (пластический хирург), Милена Давыдова (анестезиолог), Роман Сеньков (арбатский музыкант)
Описание:
В основе сюжета фильма жизненные пути двух людей - взрослого человека и подростка, пересекаются в тот момент, когда оба они стоят на краю жизни. Подросток случайно спасает жизнь взрослого. Взрослый видит, что парень, спасший его, почти след в след шагает по той же тропинке, которая его самого чуть не привела к гибели...
Рейтинг

Качество: SATRip
Формат: AVI
Видео кодек: DivX 5
Аудио кодек:MP3
Видео: DivX 5, 704x304 (2.35:1), 1662 kbps, 25 fps, 0,311 bpp
Аудио: MP3 / 2.0 / 48 kHz / 128 kbps /

General
Complete name : D:\Торенты\Sovsem.ne.prostaja.istorija.2013.SATRip.1400Mb.avi
Format : AVI
Format/Info : Audio Video Interleave
File size : 1.37 GiB
Duration : 1h 48mn
Overall bit rate : 1 800 Kbps
Writing library : VirtualDub build 35491/release

Video
ID : 0
Format : MPEG-4 Visual
Format settings, BVOP : 1
Format settings, QPel : No
Format settings, GMC : No warppoints
Format settings, Matrix : Default (H.263)
Muxing mode : Packed bitstream
Codec ID : DX50
Codec ID/Hint : DivX 5
Duration : 1h 48mn
Bit rate : 1 662 Kbps
Width : 704 pixels
Height : 304 pixels
Display aspect ratio : 2.35:1
Frame rate : 25.000 fps
Color space : YUV
Chroma subsampling : 4:2:0
Bit depth : 8 bits
Scan type : Progressive
Compression mode : Lossy
Bits/(Pixel*Frame) : 0.311
Stream size : 1.26 GiB (92%)
Writing library : DivX 6.8.5 (UTC 2009-08-20)

Audio
ID : 1
Format : MPEG Audio
Format version : Version 1
Format profile : Layer 3
Mode : Joint stereo
Mode extension : MS Stereo
Codec ID : 55
Codec ID/Hint : MP3
Duration : 1h 48mn
Bit rate mode : Constant
Bit rate : 128 Kbps
Channel(s) : 2 channels
Sampling rate : 48.0 KHz
Compression mode : Lossy
Stream size : 99.6 MiB (7%)
Alignment : Split accross interleaves
Interleave, duration : 40 ms (1.00 video frame)
Interleave, preload duration : 500 ms
piratbit.pw



Скачать Совсем не простая история через торрент http://i65.fastpic.ru/big/2014/1026/09/0133fa02b23f4295382c7b5ca7c25909.jpg Скачать фильм Совсем не простая история через торрент бесплантно в хорошем качестве Описание: В основе сюжета фильма жизненные пути двух людей - взрослого человека и подростка, пересекаются в тот момент, когда оба они стоят ... 8.7 10 11
Торрент: Зарегистрирован [2014-10-26 20:13] · скачан: 590 раз
Статус: √ проверено
Размер: 1.37 GB
Как cкачать? Как скачать Совсем не простая история через торрент | qTorrent

28-11-2019 20:33  

Отключить всю рекламу на сайте

27-10-2014 13:06 Совсем не простая история Скачать торрент  

Год выпуска: 2013piratbit.pw



16-11-2014 13:44 Совсем не простая история Скачать торрент  

отстойpiratbit.pw



    Дорогой пользователь! Огромная просьба, поблагодарите релизера, оцените раздачу и оставьте свои комментарий, если Вы скачали Совсем не простая история через торрент бесплатно! Внесите свою лепту в развитие PiratBit!
    Комментировать посты могут только пользователи прошедшие не сложную регистрацию
    Показать сообщения:    

    Совсем не простая история через торрент
    Скачать бесплатно Совсем не простая история
    Совсем не простая история скачать торрент
    Совсем не простая история смотреть онлайн
    Cкачать фильм Совсем не простая история бесплатно
    Совсем не простая история скачать торрент в хорошем качестве
    Совсем не простая история смотреть онлайн бесплатно в хорошем качестве


    Вы не можете начинать темы
    Вы не можете отвечать на сообщения
    Вы не можете редактировать свои сообщения
    Вы не можете удалять свои сообщения
    Вы не можете голосовать в опросах
    Вы не можете прикреплять файлы к сообщениям
    Вы можете скачивать файлы