1 сезон

3 сезон

iTunes

1

iTunes

DUB Netflix

iTunes

13

1 сезон

RePack

30

Deluxe

pack

Легкие деньги

ВАЖНО

ИГРА 18+

pack

RePack

MK11

RePack

jed

RePack

fifa19

RePack

RDR2

RePack

NEED FOR SPEED™ PAYBACK

4 сезон

9 сезон

Бесстыжие 9 сезон

Все сериалы

все сериалы на PB.wtf

RePack

FAR CRY 5

Anonymous, доброе утро, мы не успеваем до 1 числа собрать деньги на оплату серверов, помогите нам пожалуйста в это трудное время. В качестве благодарности мы отключим Вам всю рекламу на сайте (укажите свой ник в строку Ваше имя)!

×
  
Magnet ссылка

Пришельцы / Extraterrestrial (Колин Минихан) [2014 г., ужасы, фантастика, WEB-DLRip, Любительский одноголосый "datynet"] piratbit.pw

Пришельцы через торрент piratbit.pw

Размер: 1.46 GB | Добавлен: 6 лет 7 мес. назад | Торрент скачан:359 раз
Скачать  

25-10-2014 12:32 Пришельцы Скачать торрент  

Пришельцы / Extraterrestrial
Год выпуска: 2014
Страна: Канада / Abduction Films, Manis Film, Pink Buffalo Films
Жанр: ужасы, фантастика
Продолжительность: 01:40:40
Перевод: Любительский одноголосый (datynet)

Режиссер: Колин Минихан

В ролях: Бриттани Аллен, Фредди Строма, Мелани Папалиа, Джесси Мосс, Аня Савчич, Шон Роджерсон, Эмили Перкинс, Майк Ковач, Йен Браун, Фред Китинг

Описание: После недавнего развода родителей, юная Эйприл решает отправиться в их лесной домик вместе с любимым парнем Кайлом, чтобы приятно провести романтические выходные. Девушка хотела предаться воспоминаниям о былых временах, когда они всей семьёй приезжали сюда на всё лето и хорошо проводили время.С самого начала всё идёт не по плану: Кайл созывает своих друзей, чтобы вместе устроить безбашенную вечеринку на природе с морем выпивки. Следующим сюрпризом становится падение некоего объекта неподалёку. Ребята отправляются на разведку и совершают шокирующее открытие: они стали свидетелями крушения инопланетного корабля. На месте происшествия заметны следы выживших членов экипажа, а вскоре друзья лично сталкиваются с одним из пришельцев, результатом чего становится убийство последнего. Другие уцелевшие узнают о случившемся и открывают сезон охоты на пьяных подростков, которых теперь даже правительству не спасти от беспощадной мести зелёных человечков...

Качество: WEB-DLRip
Формат: AVI
Видео кодек: XviD
Аудио кодек: AC3
Видео: MPEG4, XviD, 720x304 (2.35:1), 23.976 fps, 1 816 Kbps (0.346 bit/pixel)
Аудио: AC-3, 48.0 KHz, 2 ch, 256 Kbps, CBR

скриншот   скриншот   скриншот   скриншот   скриншот   скриншот   скриншот   скриншот  

Общее
Полное имя : G:\кино\Пришельцы.2014.WEB-DLRip.avi
Формат : AVI
Формат/Информация : Audio Video Interleave
Размер файла : 1,46 Гбайт Продолжительность : 1 ч. 40 м.
Общий поток : 2081 Кбит/сек
Программа кодирования : VirtualDubMod 1.5.10.3 | www.virtualdub-fr.org || (build 2550/release)
Библиотека кодирования : VirtualDubMod build 2550/release

Видео
Идентификатор : 0
Формат : MPEG-4 Visual
Профиль формата : Advanced Simple@L5
Параметр BVOP формата : 1
Параметр QPel формата : Нет
Параметр GMC формата : Без точки перехода
Параметр матрицы формата : Default (MPEG)
Идентификатор кодека : XVID
Идентификатор кодека/Подсказка : XviD
Продолжительность : 1 ч. 40 м.
Битрейт : 1816 Кбит/сек
Ширина : 720 пикселей
Высота : 304 пикселя
Соотношение сторон : 2,35:1
Частота кадров : 23,976 кадра/сек
Цветовое пространство : YUV
Субдискретизация насыщенности : 4:2:0
Битовая глубина : 8 бит
Тип развёртки : Прогрессивная
Метод сжатия : С потерями
Бит/(Пиксели*Кадры) : 0.346
Размер потока : 1,28 Гбайт (87%)
Библиотека кодирования : XviD 1.2.1 (UTC 2008-12-04)

Аудио
Идентификатор : 1
Формат : AC-3
Формат/Информация : Audio Coding 3
Расширение режима : CM (complete main)
Параметр Endianness формата : Big
Идентификатор кодека : 2000
Продолжительность : 1 ч. 40 м.
Вид битрейта : Постоянный
Битрейт : 256 Кбит/сек
Каналы : 2 канала
Расположение каналов : Front: L R
Частота : 48,0 КГц
Битовая глубина : 16 бит
Метод сжатия : С потерями
Размер потока : 184 Мбайт (12%)
Выравнивание : Разделение по промежуткам
Продолжительность промежутка : 42 мс. (1,00 видеокадр)
Время предзагрузки промежутка : 500 мс.

piratbit.pw



Скачать Пришельцы через торрент https://pic1.kartinco.top/images/71/5esit.jpg Скачать фильм Пришельцы через торрент бесплантно в хорошем качестве Описание: После недавнего развода родителей, юная Эйприл решает отправиться в их лесной домик вместе с любимым парнем Кайлом, чтобы приятно ... 9.9 10 20
Торрент: Зарегистрирован [2014-10-25 12:32] · скачан: 359 раз
Статус: T временная
Размер: 1.46 GB
Как cкачать? Как скачать Пришельцы через торрент | UTorrent

% Раздел Тема Автор DL S | L
T Фильмы 2014 [DVDrip, WEB-DLRip, HDrip] [ 1.73 GB ] Пришельцы / Extraterrestrial [2014 HDRip Любительский многоголосый) GEKADOL Скачать
1 | 0
Фильмы 2014 [DVDrip, WEB-DLRip, HDrip] [ 1.46 GB ] Пришельцы / Extraterrestrial [2014 WEB-DLRip] MVO Ворон Скачать
1 | 0
T Фильмы (WEB-DL 720p, 1080p) [ 3.44 GB ] Пришельцы / Extraterrestrial [2014 WEB-DL 720p] MVO Ворон Скачать
1 | 0

28-11-2019 20:33  

Отключить всю рекламу на сайте

25-10-2014 13:26 Пришельцы Скачать торрент  

пол фильма посмотрел, поже на какой-то старый кинчек по жанку поход чем то на спуск, неоченьpiratbit.pw



25-10-2014 14:13 Пришельцы Скачать торрент  

Без асисяя детектива обречена sarcasticpiratbit.pw



25-10-2014 17:02 Пришельцы Скачать торрент  

Бухой школоте попался на глаза пришелец - завалили... Ну что за дети =))
Ента баба на скринах и есть пришелец? rofl Если нет, то где скрины с пришельцами то?) Это же фильм о них..piratbit.pw



26-10-2014 19:12 Пришельцы Скачать торрент  

Зря смеетесь, фильм очень даже ничего. Особенно концовка. :) Кстати в концовке x-files попахивает (для тех кто смотрел этот сериал).piratbit.pw



    Дорогой пользователь! Огромная просьба, поблагодарите релизера, оцените раздачу и оставьте свои комментарий, если Вы скачали Пришельцы через торрент бесплатно! Внесите свою лепту в развитие PiratBit!
    Комментировать посты могут только пользователи прошедшие не сложную регистрацию
    Показать сообщения:    

    Пришельцы через торрент
    Скачать бесплатно Пришельцы
    Пришельцы скачать торрент
    Пришельцы смотреть онлайн
    Cкачать фильм Пришельцы бесплатно
    Пришельцы скачать торрент в хорошем качестве
    Пришельцы смотреть онлайн бесплатно в хорошем качестве


    Вы не можете начинать темы
    Вы не можете отвечать на сообщения
    Вы не можете редактировать свои сообщения
    Вы не можете удалять свои сообщения
    Вы не можете голосовать в опросах
    Вы не можете прикреплять файлы к сообщениям
    Вы можете скачивать файлы