Ссылка на приватное зеркало нашего сайта всего за 1$. Внимание количество ограничено!!!

2 сезон

iTunes

1 сезон

1

iTunes

iTunes

iTunes

1 сезон

RePack

30

ИГРА 18+

pack

ВАЖНО

!!Акция!!

Alien_RageХит недели

RePack

MK11
pack

Забери бонус

RePack

jed

!!Акция!!

Alien_Rage

RePack

fifa19

RePack

Assassins Creed: Odyssey

RePack

NEED FOR SPEED™ PAYBACK

4 сезон

9 сезон

Бесстыжие 9 сезон

Все сериалы

все сериалы на PB.wtf

RePack

FAR CRY 5
  

Смешанные чувства (Георгий Малков) [2014, Россия, комедия, WEBRip) piratbit.pw

Смешанные чувства через торрент piratbit.pw

Размер: 700 MB | Добавлен: 6 лет назад | Торрент скачан:883 раза
Скачать  

23-10-2014 10:28 Смешанные чувства Скачать торрент  

Смешанные чувства

Год выпуска: 2014
Страна: Россия
Жанр: комедия
Продолжительность: 01:22:26
Перевод: Не требуется
Субтитры: Нет
Режиссер: Георгий Малков
В ролях: Александр Ревва (Фил), Павел Деревянко (Петр), Татьяна Космачева, Артем Сучков, Максим Коновалов, Эмиль Никогосян, Вадим Цаллати, Мария Сёмкина, Александр Булатов, Раиса Рязанова, Олег Газманов, Эвелина Блёданс
Описание:
Они настолько разные, что не должны были пересечься в обычной жизни. Фил - бывшая звезда 90-х, прославившийся в свое время одной единственной песней. Теперь он работает ди-джеем, завидует Олегу Газманову и не выносит ответственности. Петр - врач-карьерист, сухарь и педант. Записывает на диктофон свои планы на день, боится пригласить девушку на свидание и знать не знает кто такой Газманов.
После электрошока они начинают испытывать чувства друг друга. Когда одному больно, то от боли вздрагивает и другой, когда одному из них страшно, то пугается и второй. Смеется один, непроизвольный смех у другого. Веселая жизнь и острые эмоции Фила рушат сначала системную размеренную работу Пети, а затем появляется проблема посерьезнее, когда вслед за Петей в его девушку влюбляется и Фил.
Рейтинг
kinopoisk.ru: 4.847 (2617)
Качество: WEBRip
Формат: AVI
Видео кодек: XviD
Аудио кодек:AC3
Видео: XviD, 688x288 (2.40:1), 1049 kbps, 25 fps, 0,212 bpp
Аудио: AC3 / 2.0 / 44 kHz / 128 kbps / 16 bit

General
Complete name : D:\Торенты\Smeshann1e.4uvstv4.2014.O.WEBRip.700MB.avi
Format : AVI
Format/Info : Audio Video Interleave
File size : 700 MiB
Duration : 1h 22mn
Overall bit rate : 1 187 Kbps
Writing application : VirtualDubMod 1.5.10.3 | www.virtualdub-fr.org || (build 2550/release)
Writing library : VirtualDubMod build 2550/release

Video
ID : 0
Format : MPEG-4 Visual
Format profile : Advanced Simple@L5
Format settings, BVOP : 2
Format settings, QPel : No
Format settings, GMC : No warppoints
Format settings, Matrix : Default (MPEG)
Codec ID : XVID
Codec ID/Hint : XviD
Duration : 1h 22mn
Bit rate : 1 049 Kbps
Width : 688 pixels
Height : 288 pixels
Display aspect ratio : 2.40:1
Frame rate : 25.000 fps
Color space : YUV
Chroma subsampling : 4:2:0
Bit depth : 8 bits
Scan type : Progressive
Compression mode : Lossy
Bits/(Pixel*Frame) : 0.212
Stream size : 619 MiB (88%)
Writing library : XviD 1.2.1 (UTC 2008-12-04)

Audio
ID : 1
Format : AC-3
Format/Info : Audio Coding 3
Mode extension : CM (complete main)
Codec ID : 2000
Duration : 1h 22mn
Bit rate mode : Constant
Bit rate : 128 Kbps
Channel(s) : 2 channels
Channel positions : Front: L R
Sampling rate : 44.1 KHz
Bit depth : 16 bits
Compression mode : Lossy
Stream size : 75.5 MiB (11%)
Alignment : Split accross interleaves
Interleave, duration : 40 ms (1.00 video frame)
Interleave, preload duration : 500 ms
piratbit.pw



Скачать Смешанные чувства через торрент http://i65.fastpic.ru/big/2014/1023/d1/be98fd7bddc35426a6c743777ea347d1.jpg Скачать фильм Смешанные чувства через торрент бесплантно в хорошем качестве Описание: Они настолько разные, что не должны были пересечься в обычной жизни. Фил - бывшая звезда 90-х, прославившийся в свое время одной ... 9.4 10 18
Торрент: Зарегистрирован [2014-10-23 10:28] · скачан: 883 раз
Статус: T временная
Размер: 700 MB
Как cкачать? Как скачать Смешанные чувства через торрент | qTorrent

% Раздел Тема Автор DL S | L
T Наши новые фильмы 2014 [ 1.37 GB ] Смешанные чувства [2014 Россия WEBRip] GEKADOL Скачать
3 | 0
Наши фильмы (DVD фильмы) [ 4 GB ] Смешанные чувства [2014 DVD5] R5 voovaz Скачать
1 | 0

28-11-2019 20:33  

Отключить всю рекламу на сайте

24-10-2014 18:31 Смешанные чувства Скачать торрент  

Ужасное, унылое кино.....до конца не смог осилить. nopiratbit.pw



    Дорогой пользователь! Огромная просьба, поблагодарите релизера, оцените раздачу и оставьте свои комментарий, если Вы скачали Смешанные чувства через торрент бесплатно! Внесите свою лепту в развитие PiratBit!
    Комментировать посты могут только пользователи прошедшие не сложную регистрацию
    Показать сообщения:    

    Смешанные чувства через торрент
    Скачать бесплатно Смешанные чувства
    Смешанные чувства скачать торрент
    Смешанные чувства смотреть онлайн
    Cкачать фильм Смешанные чувства бесплатно
    Смешанные чувства скачать торрент в хорошем качестве
    Смешанные чувства смотреть онлайн бесплатно в хорошем качестве


    Вы не можете начинать темы
    Вы не можете отвечать на сообщения
    Вы не можете редактировать свои сообщения
    Вы не можете удалять свои сообщения
    Вы не можете голосовать в опросах
    Вы не можете прикреплять файлы к сообщениям
    Вы можете скачивать файлы