Marvel's Avengers Deluxe Edition (супер цена) 159р. Внимание количество ограничено!!!

2 сезон

iTunes

iTunes

1

iTunes

iTunes

iTunes

WEBRip

iTunes

30
pack

Новость дня

ВАЖНО

!!Акция!!

Alien_RageХит недели

RePack

Horizon Zero Dawn

ИГРА 18+

pack

RePack

jed

!!Акция!!

Alien_Rage

RePack

fifa19

RePack

Assassins Creed: Odyssey

RePack

NEED FOR SPEED™ PAYBACK

4 сезон

9 сезон

Бесстыжие 9 сезон

Все сериалы

все сериалы на PB.wtf

RePack

FAR CRY 5
  

Монгол (Сергей Бодров) [2007 г., драма, военный, биография, история, BDRip 1080p] VO piratbit.pw

Монгол через торрент piratbit.pw

Размер: 13.13 GB | Добавлен: 5 лет 10 мес. назад | Торрент скачан:85 раз
Скачать  

23-10-2014 09:23 Монгол Скачать торрент  

Монгол
Год выпуска: 2007
Страна: Россия, Германия, Казахстан
Жанр: драма, военный, биография, история
Перевод: Профессиональный одноголосый
Продолжительность: 02:05:38
Субтитры: Russian (forced), Russian, English

Режиссер: Сергей Бодров
Продюссер: Штефан Арндт, Боб Берни, Сергей Бодров
Сценарий: Ариф Алиев, Сергей Бодров
Бюджет: $18 000 000
Премьера в мире: 8 сентября 2007

IMDB 7.30 (32 961)


В ролях: Алия, Теген Ао, Таданобу Асано, Бай Ин, Хулан Чулуун, Бао Ди, Баерцецег Ерденабат, Ден Ба Те Эр, Ю Эр, Сай Хин Га

Описание: «Не презирай слабого детеныша — он может оказаться сыном тигра», — гласит монгольская пословица. Мальчик Тэмуджин, которому предстоит стать Чингисханом, повелителем половины мира, прошел через голод, унижения, рабство. На него охотились, его пытали и предавали. Он выжил, хотя казалось, что это невозможно. Его сила, ум и воля к жизни были несравнимы с возможностями обычного человека. Его поддерживала любовь Борте, первой и любимой жены, которую у него никто не смог отнять...

Качество: BDRip 1080p
Формат: MKV
Видео кодек: AVC
Аудио кодек: DTS
Видео: 1920x818 at 23.976 fps, x264@L4.1, crf, ~11938 kbps avg
Аудио#1: Russian: 48 kHz, DTS, 3/2 (L,C,R,l,r) + LFE ch, ~1510 kbps avg |Одноголосый закадровый|
Аудио#2: English: 48 kHz, DTS, 3/2 (L,C,R,l,r) + LFE ch, ~1509 kbps avg
General
Unique ID : 252994023178309536426777930399714506054 (0xBE54E0623D38F6BFA24B969EBF5DF546)
Complete name : /home/sb1855/files/Mongol.2007.1080p.BluRay.Rus.Mon.HDCLUB-CtrlHD.mkv
Format : Matroska
Format version : Version 4 / Version 2
File size : 13.1 GiB
Duration : 2h 5mn
Overall bit rate : 15.0 Mbps
Movie name : ?????? (2007) - Release for HDCLUB
Encoded date : UTC 2014-10-23 05:09:39
Writing application : mkvmerge v7.1.0 ('Good Love') 64bit built on Jul 27 2014 13:06:55
Writing library : libebml v1.3.0 + libmatroska v1.4.1
Attachment : Yes

Video
ID : 1
Format : AVC
Format/Info : Advanced Video Codec
Format profile : High@L4.1
Format settings, CABAC : Yes
Format settings, ReFrames : 5 frames
Codec ID : V_MPEG4/ISO/AVC
Duration : 2h 5mn
Bit rate : 11.6 Mbps
Width : 1 920 pixels
Height : 818 pixels
Display aspect ratio : 2.35:1
Frame rate : 23.976 fps
Color space : YUV
Chroma subsampling : 4:2:0
Bit depth : 8 bits
Scan type : Progressive
Bits/(Pixel*Frame) : 0.309
Stream size : 10.2 GiB (78%)
Title : Release for HDCLUB
Writing library : x264 core 128 r2216kMod 198a7ea
Encoding settings : cabac=1 / ref=5 / deblock=1:-3:-3 / analyse=0x3:0x133 / me=umh / subme=11 / psy=1 / fade_compensate=0.00 / psy_rd=1.05:0.05 / mixed_ref=1 / me_range=48 / chroma_me=1 / trellis=2 / 8x8dct=1 / cqm=0 / deadzone=21,11 / fast_pskip=0 / chroma_qp_offset=-3 / threads=6 / lookahead_threads=1 / sliced_threads=0 / nr=0 / decimate=0 / interlaced=0 / bluray_compat=0 / constrained_intra=0 / bframes=7 / b_pyramid=2 / b_adapt=2 / b_bias=0 / direct=3 / weightb=1 / open_gop=0 / weightp=2 / keyint=250 / keyint_min=23 / scenecut=40 / intra_refresh=0 / rc=crf / mbtree=0 / crf=19.0000 / qcomp=0.70 / qpmin=10 / qpmax=51 / qpstep=4 / ip_ratio=1.20 / pb_ratio=1.20 / aq=1:0.90
Language : Mongolian
Default : No
Forced : No

Audio #1
ID : 2
Format : DTS
Format/Info : Digital Theater Systems
Codec ID : A_DTS
Duration : 2h 5mn
Bit rate mode : Constant
Bit rate : 1 510 Kbps
Channel(s) : 6 channels
Channel positions : Front: L C R, Side: L R, LFE
Sampling rate : 48.0 KHz
Bit depth : 24 bits
Compression mode : Lossy
Stream size : 1.32 GiB (10%)
Language : Russian
Default : No
Forced : No

Audio #2
ID : 3
Format : DTS
Format/Info : Digital Theater Systems
Codec ID : A_DTS
Duration : 2h 5mn
Bit rate mode : Constant
Bit rate : 1 510 Kbps
Channel(s) : 6 channels
Channel positions : Front: L C R, Side: L R, LFE
Sampling rate : 48.0 KHz
Bit depth : 24 bits
Compression mode : Lossy
Stream size : 1.32 GiB (10%)
Language : Mongolian
Default : No
Forced : No

Text #1
ID : 4
Format : UTF-8
Codec ID : S_TEXT/UTF8
Codec ID/Info : UTF-8 Plain Text
Title : forced
Language : Russian
Default : Yes
Forced : No

Text #2
ID : 5
Format : UTF-8
Codec ID : S_TEXT/UTF8
Codec ID/Info : UTF-8 Plain Text
Language : Russian
Default : No
Forced : No

Text #3
ID : 6
Format : UTF-8
Codec ID : S_TEXT/UTF8
Codec ID/Info : UTF-8 Plain Text
Language : English
Default : No
Forced : No

Menu
00:00:00.000 : en:Chapter 1
00:05:13.396 : en:Chapter 2
00:11:09.502 : en:Chapter 3
00:15:16.206 : en:Chapter 4
00:19:30.377 : en:Chapter 5
00:22:32.267 : en:Chapter 6
00:26:15.949 : en:Chapter 7
00:28:23.868 : en:Chapter 8
00:34:40.078 : en:Chapter 9
00:39:14.185 : en:Chapter 10
00:44:44.848 : en:Chapter 11
00:48:33.994 : en:Chapter 12
00:54:11.831 : en:Chapter 13
00:58:04.272 : en:Chapter 14
01:02:47.930 : en:Chapter 15
01:07:29.336 : en:Chapter 16
01:11:45.467 : en:Chapter 17
01:15:56.802 : en:Chapter 18
01:19:55.540 : en:Chapter 19
01:25:25.537 : en:Chapter 20
01:30:02.480 : en:Chapter 21
01:32:30.711 : en:Chapter 22
01:35:42.111 : en:Chapter 23
01:41:23.952 : en:Chapter 24
01:44:50.617 : en:Chapter 25
01:47:41.663 : en:Chapter 26
01:51:22.884 : en:Chapter 27
01:54:17.851 : en:Chapter 28
01:58:22.095 : en:Chapter 29
02:01:33.160 : en:Chapter 30

piratbit.pw



Скачать Монгол через торрент http://i67.fastpic.ru/big/2014/1023/76/0a9a15240b331c33f3a31614d43ee976.png Скачать фильм Монгол через торрент бесплантно в хорошем качестве Описание: «Не презирай слабого детеныша — он может оказаться сыном тигра», — гласит монгольская пословица. Мальчик Тэмуджин, которому ... 9.9 10 14
Info! Золотая раздача, скачанное не засчитывается.
Торрент: Зарегистрирован [2014-10-23 09:23] · скачан: 85 раз
Статус: √ проверено
Размер: 13.13 GB
Как cкачать? Как скачать Монгол через торрент | qTorrent

% Раздел Тема Автор DL S | L
Наши фильмы, до 2010 [ 1.99 GB ] Монгол [2007 военный биография история HDRip-AVC VO] lev1244v Скачать
1 | 0
Азиатские фильмы [ 1.41 GB ] Аравт – 10 солдат Чингисхана / ARAVT - The Ten Soldiers of Chinggis Khaan [2012 Монголия военный исторический DVDRip] MVO Ворон Скачать
1 | 0

28-11-2019 20:33  

Отключить всю рекламу на сайте

    Дорогой пользователь! Огромная просьба, поблагодарите релизера, оцените раздачу и оставьте свои комментарий, если Вы скачали Монгол через торрент бесплатно! Внесите свою лепту в развитие PiratBit!
    Комментировать посты могут только пользователи прошедшие не сложную регистрацию
    Показать сообщения:    

    Монгол через торрент
    Скачать бесплатно Монгол
    Монгол скачать торрент
    Монгол смотреть онлайн
    Cкачать фильм Монгол бесплатно
    Монгол скачать торрент в хорошем качестве
    Монгол смотреть онлайн бесплатно в хорошем качестве


    Вы не можете начинать темы
    Вы не можете отвечать на сообщения
    Вы не можете редактировать свои сообщения
    Вы не можете удалять свои сообщения
    Вы не можете голосовать в опросах
    Вы не можете прикреплять файлы к сообщениям
    Вы можете скачивать файлы