1 сезон

3 сезон

iTunes

1

iTunes

DUB Netflix

iTunes

13

1 сезон

RePack

30

Deluxe

pack

Легкие деньги

ВАЖНО

ИГРА 18+

pack

RePack

MK11

RePack

jed

RePack

fifa19

RePack

RDR2

RePack

NEED FOR SPEED™ PAYBACK

4 сезон

9 сезон

Бесстыжие 9 сезон

Все сериалы

все сериалы на PB.wtf

RePack

FAR CRY 5

Anonymous, доброе утро, мы не успеваем до 1 числа собрать деньги на оплату серверов, помогите нам пожалуйста в это трудное время. В качестве благодарности мы отключим Вам всю рекламу на сайте (укажите свой ник в строку Ваше имя)!

×
  
Magnet ссылка

Одна квадратная миля / One Square Mile (Шарль Оливье-Мишо) [2014 г., драма, WEB-DLRip, Профессиональный одноголосый "Владислав Данилов"] piratbit.pw

Одна квадратная миля через торрент piratbit.pw

Размер: 1.46 GB | Добавлен: 6 лет 7 мес. назад | Торрент скачан:76 раз
Скачать  

21-10-2014 17:23 Одна квадратная миля Скачать торрент  

Одна квадратная миля / One Square Mile
Год выпуска: 2014
Страна: США / One Square Mile Management Company, Phoenix Rising Motion Pictures
Жанр: драма
Продолжительность: 01:36:12
Перевод: Профессиональный одноголосый (Владислав Данилов)

Режиссер: Шарль Оливье-Мишо

В ролях: Келли Блац , Ричард Дженкинс , Кэм Жиганде , Анали Типтон , Риз Койро , Ким Бейсингер , Дилан Арнольд , Блэр Фаулер , Мэттью Смит , Том Риччьярделли

Описание: Дрю Джейкобс живет на окраине большого города. Его мечта: вырваться из бедности. Его мир: затюканная жизнью мать и брат-уголовник. Его единственная надежда: выиграть чемпионат по бегу и получить стипендию на обучение в престижном университете.

Качество: WEB-DLRip
Формат: AVI
Видео кодек: XviD
Аудио кодек: AC3
Видео: MPEG4, XviD, 720x304 (2.35:1), 23.976 fps, 1 976 Kbps (0.376 bit/pixel)
Аудио: AC-3, 48.0 KHz, 2 ch, 192 Kbps, CBR

скриншот   скриншот   скриншот   скриншот   скриншот   скриншот   скриншот   скриншот  

Общее
Полное имя : G:\кино\4.Minute.Mile.2014.WEB.DLRip.avi
Формат : AVI
Формат/Информация : Audio Video Interleave
Размер файла : 1,46 Гбайт
Продолжительность : 1 ч. 36 м.
Общий поток : 2177 Кбит/сек
Программа кодирования : VirtualDubMod 1.5.10.3 | www.virtualdub-fr.org || (build 2550/release)
Библиотека кодирования : VirtualDubMod build 2550/release

Видео
Идентификатор : 0
Формат : MPEG-4 Visual
Профиль формата : Advanced Simple@L5
Параметр BVOP формата : 1
Параметр QPel формата : Нет
Параметр GMC формата : Без точки перехода
Параметр матрицы формата : Default (MPEG)
Идентификатор кодека : XVID
Идентификатор кодека/Подсказка : XviD
Продолжительность : 1 ч. 36 м.
Битрейт : 1976 Кбит/сек
Ширина : 720 пикселей
Высота : 304 пикселя
Соотношение сторон : 2,35:1
Частота кадров : 23,976 кадра/сек
Цветовое пространство : YUV
Субдискретизация насыщенности : 4:2:0
Битовая глубина : 8 бит
Тип развёртки : Прогрессивная
Метод сжатия : С потерями
Бит/(Пиксели*Кадры) : 0.376
Размер потока : 1,33 Гбайт (91%)
Библиотека кодирования : XviD 1.2.1 (UTC 2008-12-04)

Аудио
Идентификатор : 1
Формат : AC-3
Формат/Информация : Audio Coding 3
Расширение режима : CM (complete main)
Параметр Endianness формата : Big
Идентификатор кодека : 2000
Продолжительность : 1 ч. 36 м.
Вид битрейта : Постоянный
Битрейт : 192 Кбит/сек
Каналы : 2 канала
Расположение каналов : Front: L R
Частота : 48,0 КГц
Битовая глубина : 16 бит
Метод сжатия : С потерями
Размер потока : 132 Мбайт (9%)
Выравнивание : Разделение по промежуткам
Продолжительность промежутка : 42 мс. (1,00 видеокадр)
Время предзагрузки промежутка : 500 мс.

piratbit.pw



Скачать Одна квадратная миля через торрент https://pic1.kartinco.top/images/71/hox3i.jpg Скачать фильм Одна квадратная миля через торрент бесплантно в хорошем качестве Описание: Дрю Джейкобс живет на окраине большого города. Его мечта: вырваться из бедности. Его мир: затюканная жизнью мать и ... 10 10 4
Торрент: Зарегистрирован [2014-10-21 17:23] · скачан: 76 раз
Статус: √ проверено
Размер: 1.46 GB
Как cкачать? Как скачать Одна квадратная миля через торрент | UTorrent

28-11-2019 20:33  

Отключить всю рекламу на сайте

    Дорогой пользователь! Огромная просьба, поблагодарите релизера, оцените раздачу и оставьте свои комментарий, если Вы скачали Одна квадратная миля через торрент бесплатно! Внесите свою лепту в развитие PiratBit!
    Комментировать посты могут только пользователи прошедшие не сложную регистрацию
    Показать сообщения:    

    Одна квадратная миля через торрент
    Скачать бесплатно Одна квадратная миля
    Одна квадратная миля скачать торрент
    Одна квадратная миля смотреть онлайн
    Cкачать фильм Одна квадратная миля бесплатно
    Одна квадратная миля скачать торрент в хорошем качестве
    Одна квадратная миля смотреть онлайн бесплатно в хорошем качестве


    Вы не можете начинать темы
    Вы не можете отвечать на сообщения
    Вы не можете редактировать свои сообщения
    Вы не можете удалять свои сообщения
    Вы не можете голосовать в опросах
    Вы не можете прикреплять файлы к сообщениям
    Вы можете скачивать файлы