Ссылка на приватное зеркало нашего сайта всего за 1$. Внимание количество ограничено!!!

2 сезон

iTunes

1 сезон

1

iTunes

iTunes

iTunes

1 сезон

RePack

30

ИГРА 18+

pack

ВАЖНО

!!Акция!!

Alien_RageХит недели

RePack

MK11
pack

Забери бонус

RePack

jed

!!Акция!!

Alien_Rage

RePack

fifa19

RePack

Assassins Creed: Odyssey

RePack

NEED FOR SPEED™ PAYBACK

4 сезон

9 сезон

Бесстыжие 9 сезон

Все сериалы

все сериалы на PB.wtf

RePack

FAR CRY 5
  

Корпоратив (Олег Асадулин) [2014, Россия, комедия, WEB-DLRip] piratbit.pw

Корпоратив через торрент piratbit.pw

Размер: 1.46 GB | Добавлен: 6 лет назад | Торрент скачан:4077 раз
Скачать  

21-10-2014 08:01 Корпоратив Скачать торрент  

Корпоратив

Год выпуска: 2014
Страна: Россия
Жанр: комедия
Продолжительность: 01:25:09
Перевод: Не требуется
Субтитры: Нет
Режиссер: Олег Асадулин
В ролях: Николай Наумов, Владимир Толоконников, Мирослава Карпович, Андрей Федорцов, Аристарх Венес, Марина Федункив, Михаил Башкатов, Максим Виторган, Сергей Белоголовцев, Роман Юнусов, Сергей Селин, Наталия Медведева
Описание:
Игорь - старший менеджер в мебельном салоне, мечтающий о повышении. На следующий день после корпоративной вечеринки он обнаруживает, что салон полностью разгромлен. Сотрудники утверждают, что когда они уходили, всё было в порядке. Игоря это не устраивает, ведь теперь на кону его карьера. Пытаясь выяснить, что же произошло, Игорь узнаёт шокирующие подробности о ночных приключениях своих коллег...
Качество: WEB-DLRip
Формат: AVI
Видео кодек: XviD
Аудио кодек:AC3
Видео: XviD, 720x384 (1.875), 2054 kbps, 25 fps, 0,297 bpp
Аудио: AC3 / 5.1 / 48 kHz / 384 kbps / 16 bit

General
Complete name : D:\Торенты\Korporativ.2014.O.WEB-DLRip.avi
Format : AVI
Format/Info : Audio Video Interleave
File size : 1.46 GiB
Duration : 1h 25mn
Overall bit rate : 2 448 Kbps
Movie name : Korporativ.2014.O.WEB-DLRip.ELEKTRI4KA
Director : ELEKTRI4KA
Genre : Comedy
Writing application : VirtualDubMod 1.5.10.3 | www.virtualdub-fr.org || (build 2550/release)
Original source form/Name : Movie

Video
ID : 0
Format : MPEG-4 Visual
Format profile : Advanced Simple@L5
Format settings, BVOP : 2
Format settings, QPel : No
Format settings, GMC : No warppoints
Format settings, Matrix : Custom
Codec ID : XVID
Codec ID/Hint : XviD
Duration : 1h 25mn
Bit rate : 2 054 Kbps
Width : 720 pixels
Height : 384 pixels
Display aspect ratio : 1.875
Frame rate : 25.000 fps
Color space : YUV
Chroma subsampling : 4:2:0
Bit depth : 8 bits
Scan type : Progressive
Compression mode : Lossy
Bits/(Pixel*Frame) : 0.297
Stream size : 1.22 GiB (84%)
Writing library : XviD 1.2.1 (UTC 2008-12-04)

Audio
ID : 1
Format : AC-3
Format/Info : Audio Coding 3
Mode extension : CM (complete main)
Codec ID : 2000
Duration : 1h 25mn
Bit rate mode : Constant
Bit rate : 384 Kbps
Channel(s) : 6 channels
Channel positions : Front: L C R, Side: L R, LFE
Sampling rate : 48.0 KHz
Bit depth : 16 bits
Compression mode : Lossy
Stream size : 234 MiB (16%)
Alignment : Split accross interleaves
Interleave, duration : 40 ms (1.00 video frame)
Interleave, preload duration : 500 ms

piratbit.pw



Скачать Корпоратив через торрент http://i64.fastpic.ru/big/2014/1021/be/7d4c83ccc876c7ad5e478573ca35babe.jpg Скачать фильм Корпоратив через торрент бесплантно в хорошем качестве Описание: Игорь - старший менеджер в мебельном салоне, мечтающий о повышении. На следующий день после корпоративной вечеринки он ... 8.8 10 69
Info! Золотая раздача, скачанное не засчитывается.
Торрент: Зарегистрирован [2014-10-21 08:01] · скачан: 4 077 раз
Статус: √ проверено
Размер: 1.46 GB
Как cкачать? Как скачать Корпоратив через торрент | qTorrent

% Раздел Тема Автор DL S | L
House (mp3) [ 422 MB ] VA - Корпоратив 2020 [ Mixed by Dj V] 2019 / MP3 / 320 kbps / Club House Disco House Dance Pop Deep House bober100 Скачать
4 | 0
Фильмы 2019-2020 [DVDrip, WEB-DLRip, HDrip] (DUB, MVO) [ 1.42 GB ] Корпоративные животные / Corporate Animals [2019 BDRip] - Twi7ter Скачать
4 | 0
Фильмы [HD 720p, 1080p] (Хороший звук DUB, MVO) [ 6.61 GB ] Корпоративные животные / Corporate Animals [2019 BDRip 1080p] bober100 Скачать
1 | 0
Фильмы 2019-2020 [DVDrip, WEB-DLRip, HDrip] (DUB, MVO) [ 1.42 GB ] Корпоративные животные / Corporate Animals [2019 BDRip] bober100 Скачать
1 | 0
Windows 7 [ 3.54 GB ] Windows 7 Корпоративная SP1 v.6.1.7601.24475 [2in1] by ivandubskoj [Ru/2019] DToretto777 Скачать
1 | 0
Фильмы (WEB-DL 720p, 1080p) [ 2.64 GB ] Корпоративные животные / Corporate Animals [2019 WEB-DL 720p] bober100 Скачать
1 | 0
Фильмы (WEB-DL 720p, 1080p) [ 3.89 GB ] Корпоративные животные / Corporate Animals [2019 WEB-DL 1080p] [AMAZON Version] bober100 Скачать
1 | 0

28-11-2019 20:33  

Отключить всю рекламу на сайте

21-10-2014 11:38 Корпоратив Скачать торрент  

У наших скудоумных режиссеров уже давно нет воображения придумать сценарий просто воруют сюжеты у америкосов. Стыдоба.piratbit.pw



21-10-2014 13:08 Корпоратив Скачать торрент  

пофиг на всё) спасибо!)piratbit.pw



21-10-2014 18:42 Корпоратив Скачать торрент  

vic010203 писал(а):

[qpost=undefined]У наших скудоумных режиссеров уже давно нет воображения придумать сценарий просто воруют сюжеты у америкосов. Стыдоба.

Это точно! Выход: - не смотреть московское гумно, к сожалению в России киноиндустрия не развита, а Москва - это попа (я про кино)piratbit.pw



22-10-2014 04:00 Корпоратив Скачать торрент  

Хрень полная,нет больше слов...piratbit.pw



22-10-2014 19:39 Корпоратив Скачать торрент  

полная пустышка фильм.....piratbit.pw



22-10-2014 21:43 Корпоратив Скачать торрент  

даже не думайте это качать!piratbit.pw



23-10-2014 03:54 Корпоратив Скачать торрент  

Предупреждали не скачивать,но с похмела так захотелось блевантинос после просмотра сего фильма....piratbit.pw



23-10-2014 06:54 Корпоратив Скачать торрент  

я специально решил написать комментарий, в общем мне не пофиг))) фильм дерьмо, к сожалению!!!piratbit.pw



23-10-2014 08:55 Корпоратив Скачать торрент  

Редкостный шлак nopiratbit.pw



27-10-2014 06:12 Корпоратив Скачать торрент  

Аффтар даже рейтинг постеснялся выложить! :sensored:

roflpiratbit.pw



19-11-2014 18:04 Корпоратив Скачать торрент  

гляну, спасибоpiratbit.pw



21-11-2014 19:04 Корпоратив Скачать торрент  

Такое гав*ище, фильм ничему хорошему не учит, а молодёжь, к сожалению, такое любит(наркота,бухло,трах,сблёв и т.д),потом вырастают криворукие, мозгоклюевые с плоским духовным миром...Короче мерзость... 1 из 10piratbit.pw



    Дорогой пользователь! Огромная просьба, поблагодарите релизера, оцените раздачу и оставьте свои комментарий, если Вы скачали Корпоратив через торрент бесплатно! Внесите свою лепту в развитие PiratBit!
    Комментировать посты могут только пользователи прошедшие не сложную регистрацию
    Показать сообщения:    

    Корпоратив через торрент
    Скачать бесплатно Корпоратив
    Корпоратив скачать торрент
    Корпоратив смотреть онлайн
    Cкачать фильм Корпоратив бесплатно
    Корпоратив скачать торрент в хорошем качестве
    Корпоратив смотреть онлайн бесплатно в хорошем качестве


    Вы не можете начинать темы
    Вы не можете отвечать на сообщения
    Вы не можете редактировать свои сообщения
    Вы не можете удалять свои сообщения
    Вы не можете голосовать в опросах
    Вы не можете прикреплять файлы к сообщениям
    Вы можете скачивать файлы