1 сезон

1 сезон

iTunes

1

КиноПоиск HD

Кинопоиск HD

iTunes

13

1 сезон

RePack

30

Новинка

ВАЖНО

ИГРА 18+

pack

RePack

MK11
pack

Легкие деньги

RePack

jed

RePack

fifa19

RePack

RDR2

RePack

NEED FOR SPEED™ PAYBACK

4 сезон

9 сезон

Бесстыжие 9 сезон

Все сериалы

все сериалы на PB.wtf

RePack

FAR CRY 5
  
Magnet ссылка

Видение / Dreamscape (Джозеф Рубин) [1984 г., ужасы, фантастика, триллер, приключения, BDRip 720p, Авторский] piratbit.pw

Видение через торрент piratbit.pw

Размер: 10.7 GB | Добавлен: 6 лет 6 мес. назад | Торрент скачан:5 раз
Скачать  

20-10-2014 11:10 Видение Скачать торрент  

Видение / Dreamscape
Год выпуска: 1984
Страна: США
Жанр: ужасы, фантастика, триллер, приключения
Продолжительность: 01:39:01
Перевод: Авторский
Субтитры: English

Режиссер: Джозеф Рубин
Продюссер: Брюс Кон Кертис, Том Кертис, Чак Рассел
Сценарий: Дэвид Локери, Чак Рассел, Джозеф Рубин
Бюджет: $12 145 169
Премьера в мире: 15 августа 1984

IMDB 6.30 (9522)


В ролях: Деннис Куэйд, Макс фон Сюдов, Кристофер Пламмер, Эдди Альберт, Кейт Кэпшоу, Дэвид Патрик Келли, Джордж Уэндт, Ларри Гельман, Кори «Бампер» Йозерс, Редмонд Глисон

Описание: Алекс Гарднер обнаруживает, что физически может проникать в сны других людей, и принимает участие в запутанной политической интриге.

Доп. информация: Сохранены оригинальные чаптеры как на Blu-ray.

Качество: BDRip 720p
Формат: MKV
Видео кодек: AVC
Аудио кодек: DTS
Видео: AVC, 1280x720 (16:9), 29.970 fps, 10.7 Mbps (0.388 bit/pixel)
Аудио#1: Russian: 48 kHz/16-bit, DTS, 3/2 (L,C,R,l,r) + LFE ch, ~1509.00 kbps avg |Одноголосый закадровый, Г.Либергал|
Аудио#2: Russian: 48 kHz/16-bit, DTS, 3/2 (L,C,R,l,r) + LFE ch, ~1509.00 kbps avg |Одноголосый закадровый, С.Визгунов|
Аудио#3: English: 48 kHz/16-bit, DTS, 3/2 (L,C,R,l,r) + LFE ch, ~1509.00 kbps avg
General
Unique ID : 193403551438461075226912732793373273958 (0x91802B4A923D3A99BB55A05360052F66)
Complete name : /home/sb1855/files/Dreamscape.1984.720p.BluRay.2xRus.Eng.HDCLUB.mkv
Format : Matroska
Format version : Version 2
File size : 10.7 GiB
Duration : 1h 39mn
Overall bit rate : 15.5 Mbps
Movie name : Dreamscape (1984) - Release for HDCLUB
Encoded date : UTC 2014-10-19 17:55:04
Writing application : mkvmerge v5.7.0 ('The Whirlwind') built on Jul 8 2012 20:08:51
Writing library : libebml v1.2.3 + libmatroska v1.3.0

Video
ID : 1
Format : AVC
Format/Info : Advanced Video Codec
Format profile : High@L4.1
Format settings, CABAC : Yes
Format settings, ReFrames : 9 frames
Codec ID : V_MPEG4/ISO/AVC
Duration : 1h 39mn
Bit rate : 10.6 Mbps
Width : 1 280 pixels
Height : 720 pixels
Display aspect ratio : 16:9
Frame rate : 29.970 fps
Color space : YUV
Chroma subsampling : 4:2:0
Bit depth : 8 bits
Scan type : Progressive
Bits/(Pixel*Frame) : 0.385
Stream size : 7.36 GiB (69%)
Writing library : x264 core 142 r2431+42 c69a006 tMod [8-bit@4:2:0 X86_64]
Encoding settings : cabac=1 / ref=9 / deblock=1:-3:-3 / analyse=0x3:0x133 / me=umh / subme=10 / psy=1 / fade_compensate=0.00 / psy_rd=1.00:0.00 / mixed_ref=1 / me_range=24 / chroma_me=1 / trellis=2 / 8x8dct=1 / cqm=0 / deadzone=21,11 / fast_pskip=1 / chroma_qp_offset=-2 / threads=12 / lookahead_threads=2 / sliced_threads=0 / nr=0 / decimate=1 / interlaced=0 / bluray_compat=0 / constrained_intra=0 / fgo=0 / bframes=8 / b_pyramid=2 / b_adapt=2 / b_bias=0 / direct=3 / weightb=1 / open_gop=0 / weightp=2 / keyint=250 / keyint_min=25 / scenecut=40 / intra_refresh=0 / rc_lookahead=60 / rc=crf / mbtree=0 / crf=16.2000 / qcomp=0.65 / qpmin=0:0:0 / qpmax=69:69:69 / qpstep=4 / vbv_maxrate=62500 / vbv_bufsize=78125 / crf_max=0.0 / nal_hrd=none / filler=0 / ip_ratio=1.30 / pb_ratio=1.20 / aq=4:0.85 / aq-sensitivity=10.00 / aq-factor=1.00:1.00:1.00 / aq2=0 / aq3=0
Language : English
Default : Yes
Forced : No
Matrix coefficients : BT.709-5, BT.1361, IEC 61966-2-4 709, SMPTE RP177

Audio #1
ID : 2
Format : DTS
Format/Info : Digital Theater Systems
Codec ID : A_DTS
Duration : 1h 39mn
Bit rate mode : Constant
Bit rate : 1 510 Kbps
Channel(s) : 6 channels
Channel positions : Front: L C R, Side: L R, LFE
Sampling rate : 48.0 KHz
Bit depth : 16 bits
Compression mode : Lossy
Stream size : 1.04 GiB (10%)
Title : |??????????? ??????????, ?.????????|
Language : Russian
Default : Yes
Forced : No

Audio #2
ID : 3
Format : DTS
Format/Info : Digital Theater Systems
Codec ID : A_DTS
Duration : 1h 39mn
Bit rate mode : Constant
Bit rate : 1 510 Kbps
Channel(s) : 6 channels
Channel positions : Front: L C R, Side: L R, LFE
Sampling rate : 48.0 KHz
Bit depth : 16 bits
Compression mode : Lossy
Stream size : 1.04 GiB (10%)
Title : |??????????? ??????????, ?.????????|
Language : Russian
Default : No
Forced : No

Audio #3
ID : 4
Format : DTS
Format/Info : Digital Theater Systems
Codec ID : A_DTS
Duration : 1h 39mn
Bit rate mode : Constant
Bit rate : 1 510 Kbps
Channel(s) : 6 channels
Channel positions : Front: L C R, Side: L R, LFE
Sampling rate : 48.0 KHz
Bit depth : 16 bits
Compression mode : Lossy
Stream size : 1.04 GiB (10%)
Language : English
Default : No
Forced : No

Text
ID : 5
Format : UTF-8
Codec ID : S_TEXT/UTF8
Codec ID/Info : UTF-8 Plain Text
Language : English
Default : No
Forced : No

Menu
00:00:00.000 : :00:00:00.000
00:01:51.177 : :00:01:51.177
00:06:56.048 : :00:06:56.048
00:15:43.909 : :00:15:43.909
00:24:21.860 : :00:24:21.860
00:35:18.249 : :00:35:18.249
00:45:58.722 : :00:45:58.722
00:55:09.005 : :00:55:09.005
01:06:22.244 : :01:06:22.244
01:14:53.255 : :01:14:53.255
01:22:08.857 : :01:22:08.857
01:35:04.465 : :01:35:04.465

piratbit.pw



Скачать Видение через торрент http://i67.fastpic.ru/big/2014/1020/26/443f6bdf4c072f24b717f787b5175d26.png Скачать фильм Видение через торрент бесплантно в хорошем качестве Описание: Алекс Гарднер обнаруживает, что физически может проникать в сны других людей, и принимает участие в запутанной политической ... 10 10 4
Info! Золотая раздача, скачанное не засчитывается.
Торрент: Зарегистрирован [2014-10-20 11:10] · скачан: 5 раз
Статус: √ проверено
Размер: 10.7 GB
Как cкачать? Как скачать Видение через торрент | UTorrent

% Раздел Тема Автор DL S | L
Фильмы [HD 720p, 1080p] (Хороший звук DUB, MVO) [ 5.46 GB ] Видение / Dreamscape [1984 BDRip 720p] 2 x AVO msltel Скачать
1 | 0
Фильмы до 2000 г. [ 3.22 GB ] Видение / Dreamscape [1984 BDRip-AVC] 2 x AVO msltel Скачать
1 | 0

28-11-2019 20:33  

Отключить всю рекламу на сайте

    Дорогой пользователь! Огромная просьба, поблагодарите релизера, оцените раздачу и оставьте свои комментарий, если Вы скачали Видение через торрент бесплатно! Внесите свою лепту в развитие PiratBit!
    Комментировать посты могут только пользователи прошедшие не сложную регистрацию
    Показать сообщения:    

    Видение через торрент
    Скачать бесплатно Видение
    Видение скачать торрент
    Видение смотреть онлайн
    Cкачать фильм Видение бесплатно
    Видение скачать торрент в хорошем качестве
    Видение смотреть онлайн бесплатно в хорошем качестве


    Вы не можете начинать темы
    Вы не можете отвечать на сообщения
    Вы не можете редактировать свои сообщения
    Вы не можете удалять свои сообщения
    Вы не можете голосовать в опросах
    Вы не можете прикреплять файлы к сообщениям
    Вы можете скачивать файлы