Ссылка на приватное зеркало нашего сайта всего за 1$. Внимание количество ограничено!!!

2 сезон

iTunes

1 сезон

1

2 сезон

2 сезон

iTunes

1 сезон

RePack

30

Новинка

ВАЖНО

ИГРА 18+

pack

RePack

MK11
pack

Забери бонус

RePack

jed

!!Акция!!

Alien_Rage

RePack

fifa19

RePack

Assassins Creed: Odyssey

RePack

NEED FOR SPEED™ PAYBACK

4 сезон

9 сезон

Бесстыжие 9 сезон

Все сериалы

все сериалы на PB.wtf

RePack

FAR CRY 5
  

Драконы: Гонки бесстрашных. Начало / Dragons: Dawn of the Dragon Racers ( Джон Санфорд / John Sanford) [2014, США, мультфильм, фэнтези, комедия, BDRip, Дубляж) piratbit.pw

Драконы: Гонки бесстрашных. Начало через торрент piratbit.pw

Размер: 510 MB | Добавлен: 6 лет 1 мес. назад | Торрент скачан:488 раз
Скачать  

20-10-2014 00:50 Драконы: Гонки бесстрашных. Начало Скачать торрент  

Драконы: Гонки бесстрашных. Начало / Dragons: Dawn of the Dragon Racers


  • Год выпуска: 2014
  • Страна: США
  • Жанр: мультфильм, фэнтези, комедия, приключения, семейный
  • Продолжительность: 00:26:37
  • Перевод: Дубляж

  • Режиссер: Джон Санфорд / John Sanford
  • В ролях:

    Джей Барушель (Hiccup, озвучка), Америка Феррера (Astrid, озвучка), ТиДжей Миллер (Tuffnut, озвучка), Зак Перлман (Snotlout, озвучка), Кристофер Минц-Плассе (Fishlegs, озвучка), Нолан Норт (Stoick, озвучка), Крис Эджерли (Gobber, озвучка), Джули Ариелла Маркус (Ruffnut, озвучка), Эндри Вермелен (Ruffnut, озвучка), Стивен Рут (Mildew, озвучка), Томас Ф. Уилсон (Bucket, озвучка), Тим Конуэй (Mulch, озвучка)

  • Описание:
    Поиски пропавшей овцы превращаются в соревнование между Иккингом и его друзьями за титул первого чемпиона драконьих гонок Олуха. Это история о расцвете драконьих гонок, и о том, как они стали самым популярным видом спорта на Олухе.
  • Рейтинг:



  • Качество: BDRip
  • Формат: :AVI
  • Видео кодек: XviD
  • Аудио кодек: AC3
  • Видео: 720x400 (16:9), 2220 kbps, 23,976 fps, 0,322 bpp
  • Аудио: 5.1 / 48 kHz / 448 kbps / 16 bit
  • Релиз от: GEKADOL

    Код:

    General
    Complete name                            : I:\Dawn of the Dragon Racers.XviD.BDRip.[ant31].avi
    Format                                   : AVI
    Format/Info                              : Audio Video Interleave
    File size                                : 510 MiB
    Duration                                 : 26mn 37s
    Overall bit rate                         : 2 678 Kbps
    Writing application                      : VirtualDubMod 1.5.10.3 | www.virtualdub-fr.org || (build 2550/release)
    Writing library                          : VirtualDubMod build 2550/release

    Video
    ID                                       : 0
    Format                                   : MPEG-4 Visual
    Format profile                           : Advanced Simple@L5
    Format settings, BVOP                    : 1
    Format settings, QPel                    : No
    Format settings, GMC                     : No warppoints
    Format settings, Matrix                  : Default (H.263)
    Codec ID                                 : XVID
    Codec ID/Hint                            : XviD
    Duration                                 : 26mn 37s
    Bit rate                                 : 2 220 Kbps
    Width                                    : 720 pixels
    Height                                   : 400 pixels
    Display aspect ratio                     : 16:9
    Frame rate                               : 23.976 fps
    Color space                              : YUV
    Chroma subsampling                       : 4:2:0
    Bit depth                                : 8 bits
    Scan type                                : Progressive
    Compression mode                         : Lossy
    Bits/(Pixel*Frame)                       : 0.322
    Stream size                              : 423 MiB (83%)
    Writing library                          : XviD 1.2.1 (UTC 2008-12-04)

    Audio
    ID                                       : 1
    Format                                   : AC-3
    Format/Info                              : Audio Coding 3
    Mode extension                           : CM (complete main)
    Codec ID                                 : 2000
    Duration                                 : 26mn 37s
    Bit rate mode                            : Constant
    Bit rate                                 : 448 Kbps
    Channel(s)                               : 6 channels
    Channel positions                        : Front: L C R, Side: L R, LFE
    Sampling rate                            : 48.0 KHz
    Bit depth                                : 16 bits
    Compression mode                         : Lossy
    Stream size                              : 85.3 MiB (17%)
    Alignment                                : Split accross interleaves
    Interleave, duration                     : 42 ms (1.00 video frame)
    Interleave, preload duration             : 500 ms


    Скриншоты:


    piratbit.pw



  • Скачать Драконы: Гонки бесстрашных. Начало через торрент http://i64.fastpic.ru/big/2014/1020/5f/30067c963b1697a8a6c831ccd002c55f.jpg Скачать фильм Драконы: Гонки бесстрашных. Начало через торрент бесплантно в хорошем качестве Описание: Поиски пропавшей овцы превращаются в соревнование между Иккингом и его друзьями за титул первого чемпиона драконьих гонок Олуха. ... 9.5 10 17
    Info! Золотая раздача, скачанное не засчитывается.
    Торрент: Зарегистрирован [2014-10-20 00:50] · скачан: 488 раз
    Статус: √ проверено
    Размер: 510 MB
    Как cкачать? Как скачать Драконы: Гонки бесстрашных. Начало через торрент | qTorrent

    28-11-2019 20:33  

    Отключить всю рекламу на сайте

      Дорогой пользователь! Огромная просьба, поблагодарите релизера, оцените раздачу и оставьте свои комментарий, если Вы скачали Драконы: Гонки бесстрашных. Начало через торрент бесплатно! Внесите свою лепту в развитие PiratBit!
      Комментировать посты могут только пользователи прошедшие не сложную регистрацию
      Показать сообщения:    

      Драконы: Гонки бесстрашных. Начало через торрент
      Скачать бесплатно Драконы: Гонки бесстрашных. Начало
      Драконы: Гонки бесстрашных. Начало скачать торрент
      Драконы: Гонки бесстрашных. Начало смотреть онлайн
      Cкачать фильм Драконы: Гонки бесстрашных. Начало бесплатно
      Драконы: Гонки бесстрашных. Начало скачать торрент в хорошем качестве
      Драконы: Гонки бесстрашных. Начало смотреть онлайн бесплатно в хорошем качестве


      Вы не можете начинать темы
      Вы не можете отвечать на сообщения
      Вы не можете редактировать свои сообщения
      Вы не можете удалять свои сообщения
      Вы не можете голосовать в опросах
      Вы не можете прикреплять файлы к сообщениям
      Вы можете скачивать файлы