1 сезон

3 сезон

iTunes

1

iTunes

DUB Netflix

iTunes

13

1 сезон

RePack

30

Deluxe

pack

Легкие деньги

ВАЖНО

ИГРА 18+

pack

RePack

MK11

RePack

jed

RePack

fifa19

RePack

RDR2

RePack

NEED FOR SPEED™ PAYBACK

4 сезон

9 сезон

Бесстыжие 9 сезон

Все сериалы

все сериалы на PB.wtf

RePack

FAR CRY 5

Anonymous, добрый вечер, мы не успеваем до 1 числа собрать деньги на оплату серверов, помогите нам пожалуйста в это трудное время. В качестве благодарности мы отключим Вам всю рекламу на сайте (укажите свой ник в строку Ваше имя)!

×
  
Magnet ссылка

Внеземное эхо / Earth to Echo (Дэйв Грин/Dave Green) [2014 г., Фантастика, приключения, семейный, HDRip, (двухголосый закадровый) [Сладкая парочка]] piratbit.pw

Внеземное эхо через торрент piratbit.pw

Размер: 1.37 GB | Добавлен: 6 лет 8 мес. назад | Торрент скачан:1041 раз
Скачать  

19-10-2014 13:20 Внеземное эхо Скачать торрент  

Внеземное эхо / Earth to Echo
Год выпуска: 2014
Страна: США
Жанр: Фантастика, приключения, семейный
Продолжительность: 01:31:15
Перевод: Любительский (двухголосый закадровый) [Сладкая парочка]
Субтитры: НЕТ

Режиссер: Дэйв Грин/Dave Green
Продюссер: Райан Кэвэна, Эндрю Панай, Адам Блум
Сценарий: Генри Гайден, Эндрю Панай

Бюджет: $13 000 000
Премьера в мире: 14 июня 2014

PG
http://www.imdb.com/title/tt2183034/?ref_=fn_al_tt_1
http://www.kinopoisk.ru/film/688713/

В ролях: Тео Хальм, Астро, Риз Хартвиг, Элла Валестедт, Джейсон Грей-Стенфорд, Кассиус Клэй, Соня Лесли, Керри О'Мэлли, Вирджиния Луиз Смит

Описание: Лучшие друзья Таск, Манч и Алекс начали получать странные закодированные послания на свои мобильные телефоны. Они убеждены, что это что-то да значит, но родители и власти не воспринимают их всерьез. Они решаются взломать код и следуют к источнику посланий. То, с чем они сталкиваются, не из нашего мира и оно нуждается в помощи.

Качество: HDRip
Формат: AVI
Видео кодек: XviD
Аудио кодек: AC3
Видео: 720x400, 1687 Кбит/с, 23,976 кадра/сек, 0.244 Бит/(Пиксели*Кадры)
Аудио#1: AC3, 448 Кбит/с, 6 канала(ов), 48,0 КГц





Полное имя : G:\Фильмы 2014\Vnezemnoe.Eho.2014.P.HDRip.1400MB.avi
Формат : AVI
Формат/Информация : Audio Video Interleave
Размер файла : 1,37 Гбайт
Продолжительность : 1 ч. 31 м.
Общий поток : 2144 Кбит/сек
Программа кодирования : VirtualDubMod 1.5.10.2 (build 2540/release)
Библиотека кодирования : VirtualDubMod build 2540/release

Идентификатор : 0
Формат : MPEG-4 Visual
Профиль формата : Advanced Simple@L5
Параметр BVOP формата : 2
Параметр QPel формата : Нет
Параметр GMC формата : Без точки перехода
Параметр матрицы формата : Default (MPEG)
Идентификатор кодека : XVID
Идентификатор кодека/Подсказка : XviD
Продолжительность : 1 ч. 31 м.
Битрейт : 1687 Кбит/сек
Ширина : 720 пикселей
Высота : 400 пикселей
Соотношение сторон : 16:9
Частота кадров : 23,976 кадра/сек
Цветовое пространство : YUV
Субдискретизация насыщенности : 4:2:0
Битовая глубина : 8 бит
Тип развёртки : Прогрессивная
Метод сжатия : С потерями
Бит/(Пиксели*Кадры) : 0.244
Размер потока : 1,08 Гбайт (79%)
Библиотека кодирования : XviD 1.2.1 (UTC 2008-12-04)

Идентификатор : 1
Формат : AC-3
Формат/Информация : Audio Coding 3
Расширение режима : CM (complete main)
Параметр Endianness формата : Big
Идентификатор кодека : 2000
Продолжительность : 1 ч. 31 м.
Вид битрейта : Постоянный
Битрейт : 448 Кбит/сек
Каналы : 6 каналов
Расположение каналов : Front: L C R, Side: L R, LFE
Частота : 48,0 КГц
Битовая глубина : 16 бит
Метод сжатия : С потерями
Размер потока : 292 Мбайт (21%)
Выравнивание : Разделение по промежуткам
Продолжительность промежутка : 42 мс. (1,00 видеокадр)
Время предзагрузки промежутка : 500 мс.

piratbit.pw



Скачать Внеземное эхо через торрент http://i63.fastpic.ru/big/2014/1019/98/08df1631618c5765f854705628e23398.jpg Скачать фильм Внеземное эхо через торрент бесплантно в хорошем качестве Описание: Лучшие друзья Таск, Манч и Алекс начали получать странные закодированные послания на свои мобильные телефоны. Они убеждены, что ... 9.2 10 31
Торрент: Зарегистрирован [2014-10-19 13:20] · скачан: 1 041 раз
Статус: T временная
Размер: 1.37 GB
Как cкачать? Как скачать Внеземное эхо через торрент | UTorrent

% Раздел Тема Автор DL S | L
Фильмы [HD 720p, 1080p] (Хороший звук DUB, MVO) [ 5.98 GB ] Внеземное эхо / Earth to Echo [2014 BDRip 1080p от New-Team] MVO Ворон Скачать
1 | 0
T Фильмы (Blu-ray, BD-Remux, HDDVD) [ 22.79 GB ] Внеземное эхо / Earth to Echo [2014 BDRemux] DVO Ворон Скачать
1 | 0


Последний раз редактировалось: DROYD002012 (2014-10-19 18:14), всего редактировалось 1 раз

28-11-2019 20:33  

Отключить всю рекламу на сайте


25-12-2014 16:20 Внеземное эхо Скачать торрент  

как фильм ??????piratbit.pw



    Дорогой пользователь! Огромная просьба, поблагодарите релизера, оцените раздачу и оставьте свои комментарий, если Вы скачали Внеземное эхо через торрент бесплатно! Внесите свою лепту в развитие PiratBit!
    Комментировать посты могут только пользователи прошедшие не сложную регистрацию
    Показать сообщения:    

    Внеземное эхо через торрент
    Скачать бесплатно Внеземное эхо
    Внеземное эхо скачать торрент
    Внеземное эхо смотреть онлайн
    Cкачать фильм Внеземное эхо бесплатно
    Внеземное эхо скачать торрент в хорошем качестве
    Внеземное эхо смотреть онлайн бесплатно в хорошем качестве


    Вы не можете начинать темы
    Вы не можете отвечать на сообщения
    Вы не можете редактировать свои сообщения
    Вы не можете удалять свои сообщения
    Вы не можете голосовать в опросах
    Вы не можете прикреплять файлы к сообщениям
    Вы можете скачивать файлы