1 сезон

1 сезон

iTunes

1

КиноПоиск HD

Кинопоиск HD

iTunes

13

1 сезон

RePack

30

Deluxe

ВАЖНО

ИГРА 18+

pack

RePack

MK11
pack

Легкие деньги

RePack

jed

RePack

fifa19

RePack

RDR2

RePack

NEED FOR SPEED™ PAYBACK

4 сезон

9 сезон

Бесстыжие 9 сезон

Все сериалы

все сериалы на PB.wtf

RePack

FAR CRY 5
  
Magnet ссылка

Заложник смерти / Afterwards (Жиль Бурдо / Gilles Bourdos) [2008, Германия, Франция, Канада, триллер, драма, детектив, BDRip-AVC] DUB Лицензия piratbit.pw

Заложник смерти через торрент piratbit.pw

Размер: 2.9 GB | Добавлен: 6 лет 6 мес. назад | Торрент скачан:116 раз
Скачать  

15-10-2014 13:30 Заложник смерти Скачать торрент  

Заложник смерти / Afterwards

Год выпуска: 2008
Страна: Германия, Франция, Канада
Жанр: триллер, драма, детектив
Продолжительность: 01:47:55
Перевод: Дубляж - [Лицензия]
Субтитры: Отсутствует
Режиссер: Жиль Бурдо / Gilles Bourdos
В ролях:


Ромен Дюрис (Nathan), Джон Малкович (Kay), Эванджелин Лилли (Claire), Паскаль Бюссьер (Anna), Сара Вайсгласс (Tracey), Рис Томпсон (Jeremy), Бруно Вердони (Doctor), Джоан Грегсон (Mother in law), Марк Камачо (Lawyer), Робин Уилкок (Lawyer), Эдвард Янки (Lawyer), Карло Местрони (Lawyer)

Описание:
Натан, влиятельный нью-йоркский адвокат, тяжело переживает расставание со своей возлюбленной Клэр. Дело принимает странный оборот, когда в жизни Натана появляется таинственный доктор Кей. По словам Кея, он способен видеть будущее, а особенно сильно он ощущает будущую смерть.

Рейтинг:
Бюджет:$15 400 000
Качество: BDRip-AVC
Формат: MKV
Видео кодек:AVC
Аудио кодек:AC3
Видео: AVC, 1024x440 (2.35:1), 3077 kbps, 24 fps, 0,285 bpp
Аудио №1: русский / AC3 / 5.1 / 48 kHz / 384 kbps / 16 bit
Аудио №2: английский / AC3 / 5.1 / 48 kHz / 384 kbps / 16 bit


General
Unique ID : 188231001504815479933109400094698272977 (0x8D9BF8E3CDCF248A8C2C70E7A2B678D1)
Complete name : D:\Users\_KaisiK_\uTorrent\КИНО\Zalozhnik.smerti.2008.x264.BDRip.(AVC).Kinozal.TV-AVC.mkv
Format : Matroska
Format version : Version 2
File size : 2.90 GiB
Duration : 1h 47mn
Overall bit rate : 3 846 Kbps
Movie name : Afterwards (2008) - fanatus (kinozal.tv)
Encoded date : UTC 2011-04-26 18:28:32
Writing application : mkvmerge v3.4.0 ('Rapunzel') сборка от May 15 2010 09:38:20
Writing library : libebml v0.8.0 + libmatroska v0.9.0

Video
ID : 1
Format : AVC
Format/Info : Advanced Video Codec
Format profile : High@L4.1
Format settings, CABAC : Yes
Format settings, ReFrames : 6 frames
Codec ID : V_MPEG4/ISO/AVC
Duration : 1h 47mn
Bit rate : 3 077 Kbps
Width : 1 024 pixels
Height : 440 pixels
Display aspect ratio : 2.35:1
Frame rate : 24.000 fps
Color space : YUV
Chroma subsampling : 4:2:0
Bit depth : 8 bits
Scan type : Progressive
Bits/(Pixel*Frame) : 0.285
Stream size : 2.26 GiB (78%)
Title : Afterwards (2008)
Writing library : x264 core 114 r1913 5fd3dce
Encoding settings : cabac=1 / ref=6 / deblock=1:-3:-3 / analyse=0x3:0x133 / me=umh / subme=9 / psy=1 / psy_rd=1.10:0.20 / mixed_ref=1 / me_range=32 / chroma_me=1 / trellis=2 / 8x8dct=1 / cqm=0 / deadzone=21,11 / fast_pskip=0 / chroma_qp_offset=-3 / threads=3 / sliced_threads=0 / nr=0 / decimate=1 / interlaced=0 / constrained_intra=0 / bframes=10 / b_pyramid=2 / b_adapt=2 / b_bias=0 / direct=3 / weightb=1 / open_gop=0 / weightp=2 / keyint=250 / keyint_min=24 / scenecut=40 / intra_refresh=0 / rc_lookahead=40 / rc=2pass / mbtree=1 / bitrate=3077 / ratetol=1.0 / qcomp=0.80 / qpmin=10 / qpmax=51 / qpstep=4 / cplxblur=20.0 / qblur=0.5 / ip_ratio=1.40 / aq=1:1.00
Language : English
Default : Yes
Forced : No

Audio #1
ID : 2
Format : AC-3
Format/Info : Audio Coding 3
Mode extension : CM (complete main)
Codec ID : A_AC3
Duration : 1h 47mn
Bit rate mode : Constant
Bit rate : 384 Kbps
Channel(s) : 6 channels
Channel positions : Front: L C R, Side: L R, LFE
Sampling rate : 48.0 KHz
Bit depth : 16 bits
Compression mode : Lossy
Stream size : 296 MiB (10%)
Title : Dub
Language : Russian
Default : Yes
Forced : No

Audio #2
ID : 3
Format : AC-3
Format/Info : Audio Coding 3
Mode extension : CM (complete main)
Codec ID : A_AC3
Duration : 1h 47mn
Bit rate mode : Constant
Bit rate : 384 Kbps
Channel(s) : 6 channels
Channel positions : Front: L C R, Side: L R, LFE
Sampling rate : 48.0 KHz
Bit depth : 16 bits
Compression mode : Lossy
Stream size : 296 MiB (10%)
Title : Original
Language : English
Default : No
Forced : No

Text #1
ID : 4
Format : UTF-8
Codec ID : S_TEXT/UTF8
Codec ID/Info : UTF-8 Plain Text
Language : Russian
Default : No
Forced : No

Text #2
ID : 5
Format : UTF-8
Codec ID : S_TEXT/UTF8
Codec ID/Info : UTF-8 Plain Text
Language : English
Default : No
Forced : No

Text #3
ID : 6
Format : UTF-8
Codec ID : S_TEXT/UTF8
Codec ID/Info : UTF-8 Plain Text
Language : Estonian
Default : No
Forced : No

Text #4
ID : 7
Format : UTF-8
Codec ID : S_TEXT/UTF8
Codec ID/Info : UTF-8 Plain Text
Language : French
Default : No
Forced : No

Text #5
ID : 8
Format : UTF-8
Codec ID : S_TEXT/UTF8
Codec ID/Info : UTF-8 Plain Text
Language : Spanish
Default : No
Forced : No

Text #6
ID : 9
Format : UTF-8
Codec ID : S_TEXT/UTF8
Codec ID/Info : UTF-8 Plain Text
Language : Bulgarian
Default : No
Forced : No

Text #7
ID : 10
Format : UTF-8
Codec ID : S_TEXT/UTF8
Codec ID/Info : UTF-8 Plain Text
Language : Polish
Default : No
Forced : No

[/code]
piratbit.pw



Скачать Заложник смерти через торрент http://i63.fastpic.ru/big/2014/1015/10/b462396b9c992e178c006b776f74aa10.png Скачать фильм Заложник смерти через торрент бесплантно в хорошем качестве Описание: Натан, влиятельный нью-йоркский адвокат, тяжело переживает расставание со своей возлюбленной Клэр. Дело принимает странный ... 10 10 4
Торрент: Зарегистрирован [2014-10-15 13:30] · скачан: 116 раз
Статус: √ проверено
Размер: 2.9 GB
Как cкачать? Как скачать Заложник смерти через торрент | UTorrent

28-11-2019 20:33  

Отключить всю рекламу на сайте

    Дорогой пользователь! Огромная просьба, поблагодарите релизера, оцените раздачу и оставьте свои комментарий, если Вы скачали Заложник смерти через торрент бесплатно! Внесите свою лепту в развитие PiratBit!
    Комментировать посты могут только пользователи прошедшие не сложную регистрацию
    Показать сообщения:    

    Заложник смерти через торрент
    Скачать бесплатно Заложник смерти
    Заложник смерти скачать торрент
    Заложник смерти смотреть онлайн
    Cкачать фильм Заложник смерти бесплатно
    Заложник смерти скачать торрент в хорошем качестве
    Заложник смерти смотреть онлайн бесплатно в хорошем качестве


    Вы не можете начинать темы
    Вы не можете отвечать на сообщения
    Вы не можете редактировать свои сообщения
    Вы не можете удалять свои сообщения
    Вы не можете голосовать в опросах
    Вы не можете прикреплять файлы к сообщениям
    Вы можете скачивать файлы