1 сезон

1 сезон

iTunes

1

КиноПоиск HD

Кинопоиск HD

iTunes

13

1 сезон

RePack

30

Новинка

ВАЖНО

ИГРА 18+

pack

RePack

MK11
pack

Легкие деньги

RePack

jed

RePack

fifa19

RePack

RDR2

RePack

NEED FOR SPEED™ PAYBACK

4 сезон

9 сезон

Бесстыжие 9 сезон

Все сериалы

все сериалы на PB.wtf

RePack

FAR CRY 5
  
Magnet ссылка

Одержимость Майкла Кинга / The Possession of Michael King (Дэвид Юнг) [2014 г., ужасы, HDRip, Авторский одноголосый "А.Дольский"] piratbit.pw

Одержимость Майкла Кинга через торрент piratbit.pw

Размер: 1.46 GB | Добавлен: 6 лет 6 мес. назад | Торрент скачан:211 раз
Скачать  

14-10-2014 16:50 Одержимость Майкла Кинга Скачать торрент  

Одержимость Майкла Кинга / The Possession of Michael King Год выпуска: 2014
Страна: США / Gold Circle Films, Quickfire Films
Жанр: ужасы
Продолжительность: 01:23:24
Перевод: Авторский одноголосый (А.Дольский)

Режиссер: Дэвид Юнг

В ролях: Шэйн Джонсон, Элла Андерсон, Кара Пифко, Кристал Альварез, Томас Арана, Люк Бэйнс, Дейл Дикки, Каллен Дуглас, Майкл Рэй Эскамиллья, Рамона Дж. Фаррингтон

Описание: Главный герой фильма — режиссер-документалист, который не верит ни в Бога, ни в дьявола. Когда умирает его жена, он решает снять фильм о религии и спиритуализме и доказать, что вся мистика — это просто выдумка. В процессе съемок он встречается с демонологами, некромантами и оккультистами, которые испытывают на нем самые темные и сильные заклятия. Эти обряды пробуждают неведомые и безудержные силы зла…

Качество: HDRip
Формат: AVI
Видео кодек: XviD
Аудио кодек: AC3
Видео: MPEG4, XviD, 720x400 (16:9), 23.976 fps, 2 043 Kbps (0.296 bit/pixel)
Аудио: AC-3, 48.0 KHz, 6 ch, 448 Kbps, CBR


Общее
Полное имя : G:\кино\Одержимость Майкла Кинга.2014.HDRip.avi
Формат : AVI
Формат/Информация : Audio Video Interleave
Размер файла : 1,46 Гбайт
Продолжительность : 1 ч. 23 м.
Общий поток : 2500 Кбит/сек
Программа кодирования : VirtualDubMod 1.5.10.3 | www.virtualdub-fr.org || (build 2550/release)
Библиотека кодирования : VirtualDubMod build 2550/release

Видео
Идентификатор : 0
Формат : MPEG-4 Visual
Профиль формата : Advanced Simple@L5
Параметр BVOP формата : 2
Параметр QPel формата : Нет
Параметр GMC формата : Без точки перехода
Параметр матрицы формата : Default (H.263)
Идентификатор кодека : XVID
Идентификатор кодека/Подсказка : XviD
Продолжительность : 1 ч. 23 м.
Битрейт : 2043 Кбит/сек
Ширина : 720 пикселей
Высота : 400 пикселей
Соотношение сторон : 16:9
Частота кадров : 23,976 кадра/сек
Цветовое пространство : YUV
Субдискретизация насыщенности : 4:2:0
Битовая глубина : 8 бит
Тип развёртки : Прогрессивная
Метод сжатия : С потерями
Бит/(Пиксели*Кадры) : 0.296
Размер потока : 1,19 Гбайт (82%)
Библиотека кодирования : XviD 1.2.1 (UTC 2008-12-04)

Аудио
Идентификатор : 1
Формат : AC-3
Формат/Информация : Audio Coding 3
Расширение режима : CM (complete main)
Параметр Endianness формата : Big
Идентификатор кодека : 2000
Продолжительность : 1 ч. 23 м.
Вид битрейта : Постоянный
Битрейт : 448 Кбит/сек
Каналы : 6 каналов
Расположение каналов : Front: L C R, Side: L R, LFE
Частота : 48,0 КГц
Битовая глубина : 16 бит
Метод сжатия : С потерями
Размер потока : 267 Мбайт (18%)
Выравнивание : Разделение по промежуткам
Продолжительность промежутка : 42 мс. (1,00 видеокадр)
Время предзагрузки промежутка : 500 мс.

piratbit.pw



Скачать Одержимость Майкла Кинга через торрент https://pic.kartinco.top/images/7/egjgm.jpg Скачать фильм Одержимость Майкла Кинга через торрент бесплантно в хорошем качестве Описание: Главный герой фильма — режиссер-документалист, который не верит ни в Бога, ни в дьявола. Когда умирает его жена, он решает снять ... 10 10 7
Торрент: Зарегистрирован [2014-10-14 16:50] · скачан: 211 раз
Статус: √ проверено
Размер: 1.46 GB
Как cкачать? Как скачать Одержимость Майкла Кинга через торрент | UTorrent

% Раздел Тема Автор DL S | L
Фильмы 2014 [DVDrip, WEB-DLRip, HDrip] [ 1.46 GB ] Одержимость Майкла Кинга / The Possession of Michael King [2014 HDRip-AVC от Ворон] DUB Ворон Скачать
2 | 0
T Фильмы 2014 [DVDrip, WEB-DLRip, HDrip] [ 1.46 GB ] Одержимость Майкла Кинга / The Possession of Michael King [2014 HDRip ] / Чистый звук Ворон Скачать
1 | 0
T Фильмы [HD 720p, 1080p] (Хороший звук DUB, MVO) [ 3.6 GB ] Одержимость Майкла Кинга / The Possession of Michael King [2014 BDRip 720p][Чистый звук] Anonymous Скачать
1 | 0
Фильмы с авторской озвучкой [ 3.75 GB ] Одержимость Майкла Кинга / The Possession of Michael King [2014 BDRip 720p Авторский одноголосый "А.Дольский"] Ворон Скачать
1 | 0

28-11-2019 20:33  

Отключить всю рекламу на сайте

14-10-2014 18:03 Одержимость Майкла Кинга Скачать торрент  

смотрел в кино, фильм пугающий местами, идея такова, не нужно шутить с силами, которые мы не понимаем, и не осознаём , что такое вообще возможно, в кино конечно всё приукрашено, как и в любом ужастике, но мысль понятна, кто-то может не сойтись со мной во мнении, но смотреть стоит...piratbit.pw



17-10-2014 17:39 Одержимость Майкла Кинга Скачать торрент  

страх какой! я ещё и в наушниках его смотрела )))piratbit.pw



12-02-2015 14:11 Одержимость Майкла Кинга Скачать торрент  

Скоростиpiratbit.pw



    Дорогой пользователь! Огромная просьба, поблагодарите релизера, оцените раздачу и оставьте свои комментарий, если Вы скачали Одержимость Майкла Кинга через торрент бесплатно! Внесите свою лепту в развитие PiratBit!
    Комментировать посты могут только пользователи прошедшие не сложную регистрацию
    Показать сообщения:    

    Одержимость Майкла Кинга через торрент
    Скачать бесплатно Одержимость Майкла Кинга
    Одержимость Майкла Кинга скачать торрент
    Одержимость Майкла Кинга смотреть онлайн
    Cкачать фильм Одержимость Майкла Кинга бесплатно
    Одержимость Майкла Кинга скачать торрент в хорошем качестве
    Одержимость Майкла Кинга смотреть онлайн бесплатно в хорошем качестве


    Вы не можете начинать темы
    Вы не можете отвечать на сообщения
    Вы не можете редактировать свои сообщения
    Вы не можете удалять свои сообщения
    Вы не можете голосовать в опросах
    Вы не можете прикреплять файлы к сообщениям
    Вы можете скачивать файлы