1 сезон

3 сезон

iTunes

1

iTunes

DUB Netflix

iTunes

13

1 сезон

RePack

30

Deluxe

pack

Легкие деньги

ВАЖНО

ИГРА 18+

pack

RePack

MK11

RePack

jed

RePack

fifa19

RePack

RDR2

RePack

NEED FOR SPEED™ PAYBACK

4 сезон

9 сезон

Бесстыжие 9 сезон

Все сериалы

все сериалы на PB.wtf

RePack

FAR CRY 5

Anonymous, доброе утро, мы не успеваем до 1 числа собрать деньги на оплату серверов, помогите нам пожалуйста в это трудное время. В качестве благодарности мы отключим Вам всю рекламу на сайте (укажите свой ник в строку Ваше имя)!

×
  
Magnet ссылка

Тихая гора / The Silent Mountain (Эрнст Госснер) [2014 г., драма, мелодрама, приключения, военный, WEB-DLRip, Любительский одноголосый "Индивидуалист"] piratbit.pw

Тихая гора через торрент piratbit.pw

Размер: 1.39 GB | Добавлен: 6 лет 8 мес. назад | Торрент скачан:92 раза
Скачать  

12-10-2014 16:28 Тихая гора Скачать торрент  

Тихая гора / The Silent Mountain
Год выпуска: 2014
Страна: Австрия, Италия, США / Sigma Film, Vent Productions, Bilgeri Film Productions
Жанр: драма, мелодрама, приключения, военный
Продолжительность: 01:38:38
Перевод: Любительский одноголосый (Индивидуалист)

Режиссер: Эрнст Госснер

В ролях: Уильям Моусли, Евгения Костантини, Клаудия Кардинале, Вернер Даен, Коррадо Инверницци, Михаэль Кадеду, Фриц Карл, Харольд Виндиш, Бриджитт Яуфенталер

Описание: Действие фильма разворачивается в 1915 году. У Карла Грубера двое замечательных детей. Они живут в Австро-Венгрии. Но несмотря на это, сын Карла Андер влюбляется в итальянку. Дочь также не осталась равнодушной к итальянцам и вышла за муж за одного из них - инженера Анджело Кальцолари. Карла брак дочери приводит в восторг, ведь у него была давняя мечта - сделать то, что никто еще никогда не делал: построить первую канатную дорогу. А муж дочери с его знаниями очень бы помог в этом деле. Но однажды вся размеренная жизнь этой семьи кардинально меняется. Всему виной война между Австро-Венгрией и Италией. Вчерашний инженер теперь вынужден взять в руки оружие. Но во всем этом хаосе и бесконечной жестокости есть только одно чувство, дающее надежду на счастливое будущее - любовь, ведь ей неподвластно ни смерть, ни ужас войны...

Качество: WEB-DLRip
Формат: AVI
Видео кодек: XviD
Аудио кодек: AC3
Видео: MPEG4, XviD, 720x304 (2.35:1), 23.976 fps, 1 623 Kbps (0.309 bit/pixel)
Аудио: AC-3, 48.0 KHz, 6 ch, 384 Kbps, CBR


Общее
Полное имя : G:\кино\Silent Mountain.2014.WEB-DLRip.avi
Формат : AVI
Формат/Информация : Audio Video Interleave
Размер файла : 1,39 Гбайт
Продолжительность : 1 ч. 38 м.
Общий поток : 2016 Кбит/сек
Программа кодирования : VirtualDubMod 1.5.10.3 | www.virtualdub-fr.org || (build 2550/release)
Библиотека кодирования : VirtualDubMod build 2550/release

Видео
Идентификатор : 0
Формат : MPEG-4 Visual
Профиль формата : Advanced Simple@L5
Параметр BVOP формата : 2
Параметр QPel формата : Нет
Параметр GMC формата : Без точки перехода
Параметр матрицы формата : Default (H.263)
Идентификатор кодека : XVID
Идентификатор кодека/Подсказка : XviD
Продолжительность : 1 ч. 38 м.
Битрейт : 1623 Кбит/сек
Ширина : 720 пикселей
Высота : 304 пикселя
Соотношение сторон : 2,35:1
Частота кадров : 23,976 кадра/сек
Цветовое пространство : YUV
Субдискретизация насыщенности : 4:2:0
Битовая глубина : 8 бит
Тип развёртки : Прогрессивная
Метод сжатия : С потерями
Бит/(Пиксели*Кадры) : 0.309
Размер потока : 1,12 Гбайт (80%)
Библиотека кодирования : XviD 1.2.1 (UTC 2008-12-04)

Аудио
Идентификатор : 1
Формат : AC-3
Формат/Информация : Audio Coding 3
Расширение режима : CM (complete main)
Параметр Endianness формата : Big
Идентификатор кодека : 2000
Продолжительность : 1 ч. 38 м.
Вид битрейта : Постоянный
Битрейт : 384 Кбит/сек
Каналы : 6 каналов
Расположение каналов : Front: L C R, Side: L R, LFE
Частота : 48,0 КГц
Битовая глубина : 16 бит
Метод сжатия : С потерями
Размер потока : 271 Мбайт (19%)
Выравнивание : Разделение по промежуткам
Продолжительность промежутка : 42 мс. (1,00 видеокадр)
Время предзагрузки промежутка : 500 мс.

piratbit.pw



Скачать Тихая гора через торрент https://pic1.kartinco.top/images/71/d7bu1.jpg Скачать фильм Тихая гора через торрент бесплантно в хорошем качестве Описание: Действие фильма разворачивается в 1915 году. У Карла Грубера двое замечательных детей. Они живут в Австро-Венгрии. Но несмотря на ... 9.2 10 5
Торрент: Зарегистрирован [2014-10-12 16:28] · скачан: 92 раз
Статус: √ проверено
Размер: 1.39 GB
Как cкачать? Как скачать Тихая гора через торрент | UTorrent

% Раздел Тема Автор DL S | L
Фильмы с украинским озвучиванием [ 1.84 GB ] Тихая гора / The Silent Mountain / Der stille Berg [2014 военный BDRip-AVC] [Ukr MVO] killermax2013 Скачать
1 | 0
Фильмы 2014 [DVDrip, WEB-DLRip, HDrip] [ 856 MB ] Тихая гора / The Silent Mountain [2014 военный WEB-DLRip-AVC] [Sub] killermax2013 Скачать
1 | 0

28-11-2019 20:33  

Отключить всю рекламу на сайте


    Дорогой пользователь! Огромная просьба, поблагодарите релизера, оцените раздачу и оставьте свои комментарий, если Вы скачали Тихая гора через торрент бесплатно! Внесите свою лепту в развитие PiratBit!
    Комментировать посты могут только пользователи прошедшие не сложную регистрацию
    Показать сообщения:    

    Тихая гора через торрент
    Скачать бесплатно Тихая гора
    Тихая гора скачать торрент
    Тихая гора смотреть онлайн
    Cкачать фильм Тихая гора бесплатно
    Тихая гора скачать торрент в хорошем качестве
    Тихая гора смотреть онлайн бесплатно в хорошем качестве


    Вы не можете начинать темы
    Вы не можете отвечать на сообщения
    Вы не можете редактировать свои сообщения
    Вы не можете удалять свои сообщения
    Вы не можете голосовать в опросах
    Вы не можете прикреплять файлы к сообщениям
    Вы можете скачивать файлы