Ссылка на приватное зеркало нашего сайта всего за 1$. Внимание количество ограничено!!!

2 сезон

iTunes

1 сезон

1

iTunes

iTunes

iTunes

1 сезон

RePack

30

ИГРА 18+

pack

ВАЖНО

!!Акция!!

Alien_RageХит недели

RePack

MK11
pack

Забери бонус

RePack

jed

!!Акция!!

Alien_Rage

RePack

fifa19

RePack

Assassins Creed: Odyssey

RePack

NEED FOR SPEED™ PAYBACK

4 сезон

9 сезон

Бесстыжие 9 сезон

Все сериалы

все сериалы на PB.wtf

RePack

FAR CRY 5
  

Разрешите тебя поцеловать… отец невесты (Петр Амелин) [2014, Россия, комедия, SATRip) piratbit.pw

Разрешите тебя поцеловать… отец невесты через торрент piratbit.pw

Размер: 1.37 GB | Добавлен: 6 лет назад | Торрент скачан:872 раза
Скачать  

12-10-2014 05:43 Разрешите тебя поцеловать… отец невесты Скачать торрент  

Разрешите тебя поцеловать… отец невесты


  • Год выпуска: 2014
  • Страна: Россия
  • Жанр: комедия
  • Продолжительность: 01:30:36
  • Перевод: Не требуется

  • Режиссер: Петр Амелин
  • В ролях:

    Игорь Лифанов, Мария Куликова, Борис Щербаков, Михаил Трясоруков

  • Описание:
    Прошло три года после событий фильма «Разрешите тебя поцеловать...на свадьбе», в котором Власов с честью вышел из истории с «бывшей женой», проверкой его части и свадьбой. Теперь полковник Григорий Власов примерный отец семьянин и служака. Наташа и Григорий живут в своей квартире в Санкт-Петербурге и воспитывают чудесного трехлетнего мальчика Родиона. Генерал вышел на пенсию и с удовольствием живет на «генеральской даче» на берегу финского залива. Кругом идиллия.
    Как гром среди ясного неба из Лондона приезжает «Муха». Дочь Власова от первого брака, Маша, которая, наконец, закончила свое обучение за рубежом. И все бы ничего, только приезжает она домой не одна, а с молодым человеком.
    Власов и капитан Маленьких устраивают Гарри настоящую солдатскую «муштру». Тем временем Наташа решила, что ей пора выходить из декретного отпуска, на службу - маленький Родя уже подрос и его можно оставлять с няней. «Только жены мне в части не хватало» - восклицает Власов! Сможет ли Гарри пройти все козни и испытания, которые приготовит ему хитроумный «отец невесты»? Получится ли у Наташи и Григория служить вместе в одной части? Выйдет ли Маша замуж за Гарри, или судьба приготовит ей лучший вариант? Все это в четвертой части комедии «Разрешите тебя поцеловать... отец невесты»
  • Рейтинг:



  • Качество: SATRip
  • Формат: :AVI
  • Видео кодек: XviD
  • Аудио кодек: AC3
  • Видео: 720x400 (16:9), 1959 kbps, 25 fps, 0,272 bpp
  • Аудио: 2.0 / 48 kHz / 192 kbps / 16 bit
  • Релиз от: GEKADOL

    Код:

    General
    Complete name                            : I:\Razrechite.tebia.pocelovat.otec.nevesty.2014.SATRip.Files-x.GeneralFilm.avi
    Format                                   : AVI
    Format/Info                              : Audio Video Interleave
    File size                                : 1.37 GiB
    Duration                                 : 1h 30mn
    Overall bit rate                         : 2 161 Kbps
    Writing application                      : VirtualDubMod 1.5.10.3 | www.virtualdub-fr.org || (build 2550/release)
    Writing library                          : VirtualDubMod build 2550/release

    Video
    ID                                       : 0
    Format                                   : MPEG-4 Visual
    Format profile                           : Advanced Simple@L5
    Format settings, BVOP                    : 1
    Format settings, QPel                    : No
    Format settings, GMC                     : No warppoints
    Format settings, Matrix                  : Custom
    Codec ID                                 : XVID
    Codec ID/Hint                            : XviD
    Duration                                 : 1h 30mn
    Bit rate                                 : 1 959 Kbps
    Width                                    : 720 pixels
    Height                                   : 400 pixels
    Display aspect ratio                     : 16:9
    Frame rate                               : 25.000 fps
    Color space                              : YUV
    Chroma subsampling                       : 4:2:0
    Bit depth                                : 8 bits
    Scan type                                : Progressive
    Compression mode                         : Lossy
    Bits/(Pixel*Frame)                       : 0.272
    Stream size                              : 1.24 GiB (91%)
    Writing library                          : XviD 73

    Audio
    ID                                       : 1
    Format                                   : AC-3
    Format/Info                              : Audio Coding 3
    Mode extension                           : CM (complete main)
    Codec ID                                 : 2000
    Duration                                 : 1h 30mn
    Bit rate mode                            : Constant
    Bit rate                                 : 192 Kbps
    Channel(s)                               : 2 channels
    Channel positions                        : Front: L R
    Sampling rate                            : 48.0 KHz
    Bit depth                                : 16 bits
    Compression mode                         : Lossy
    Stream size                              : 124 MiB (9%)
    Alignment                                : Split accross interleaves
    Interleave, duration                     : 40 ms (1.00 video frame)
    Interleave, preload duration             : 500 ms


    Скриншоты:


    piratbit.pw



  • Скачать Разрешите тебя поцеловать… отец невесты через торрент http://i67.fastpic.ru/big/2014/1012/69/fb44a2b54802bc4301ffc9d276160469.jpeg Скачать фильм Разрешите тебя поцеловать… отец невесты через торрент бесплантно в хорошем качестве Описание: Прошло три года после событий фильма «Разрешите тебя поцеловать...на свадьбе», в котором Власов с честью вышел из истории с ... 9.6 10 22
    Торрент: Зарегистрирован [2014-10-12 05:43] · скачан: 872 раз
    Статус: √ проверено
    Размер: 1.37 GB
    Как cкачать? Как скачать Разрешите тебя поцеловать… отец невесты через торрент | qTorrent

    28-11-2019 20:33  

    Отключить всю рекламу на сайте

      Дорогой пользователь! Огромная просьба, поблагодарите релизера, оцените раздачу и оставьте свои комментарий, если Вы скачали Разрешите тебя поцеловать… отец невесты через торрент бесплатно! Внесите свою лепту в развитие PiratBit!
      Комментировать посты могут только пользователи прошедшие не сложную регистрацию
      Показать сообщения:    

      Разрешите тебя поцеловать… отец невесты через торрент
      Скачать бесплатно Разрешите тебя поцеловать… отец невесты
      Разрешите тебя поцеловать… отец невесты скачать торрент
      Разрешите тебя поцеловать… отец невесты смотреть онлайн
      Cкачать фильм Разрешите тебя поцеловать… отец невесты бесплатно
      Разрешите тебя поцеловать… отец невесты скачать торрент в хорошем качестве
      Разрешите тебя поцеловать… отец невесты смотреть онлайн бесплатно в хорошем качестве


      Вы не можете начинать темы
      Вы не можете отвечать на сообщения
      Вы не можете редактировать свои сообщения
      Вы не можете удалять свои сообщения
      Вы не можете голосовать в опросах
      Вы не можете прикреплять файлы к сообщениям
      Вы можете скачивать файлы