1 сезон

3 сезон

iTunes

1

iTunes

DUB Netflix

iTunes

13

1 сезон

RePack

30

Deluxe

pack

Легкие деньги

ВАЖНО

ИГРА 18+

pack

RePack

MK11

RePack

jed

RePack

fifa19

RePack

RDR2

RePack

NEED FOR SPEED™ PAYBACK

4 сезон

9 сезон

Бесстыжие 9 сезон

Все сериалы

все сериалы на PB.wtf

RePack

FAR CRY 5

Anonymous, доброй ночи, мы не успеваем до 1 числа собрать деньги на оплату серверов, помогите нам пожалуйста в это трудное время. В качестве благодарности мы отключим Вам всю рекламу на сайте (укажите свой ник в строку Ваше имя)!

×
  
Magnet ссылка

Ярость: Смертная казнь / Rampage: Capital Punishment (Уве Болл / Uwe Boll) [2014, Канада, Германия, боевик, триллер, криминал, HDRip, Любительский (одноголосый)] piratbit.pw

Ярость: Смертная казнь через торрент piratbit.pw

Размер: 1.33 GB | Добавлен: 6 лет 8 мес. назад | Торрент скачан:1051 раз
Скачать  

07-10-2014 22:33 Ярость: Смертная казнь Скачать торрент  

Ярость: Смертная казнь / Rampage: Capital Punishment

Год выпуска: 2014
Страна: Канада, Германия
Жанр: боевик, триллер, криминал
Продолжительность: 01:32:53
Перевод: Любительский (одноголосый)[Александр Харченко]
Субтитры: Отсутствует
Режиссер: Уве Болл / Uwe Boll
В ролях:


Брендан Флетчер (Bill Williamson), Михаэлла Манн (Marlene), Нэйтан Лефельдт (Office Guy / SWAT Guy), Брюс Блэйн (The Homeless Guy), Майк Допуд, Локлин Манро, Михаэла Росс, Джон Сэмпсон (John), Дэн Захари (News Crew Camera man), Мэтт Фрюэр (Mr. Williamson, озвучка, в титрах не указан)

Описание:
Билл Уильямсон наносит новый удар. Спустя два года он берет в заложники персонал телеканала с целью воплотить еще один гениальный план...

Рейтинг:

Качество: HDRip
Формат: AVI
Видео кодек:XviD
Аудио кодек:AC3
Видео: XviD, 720x402 (16:9), 1599 kbps, 23,976 fps, 0,230 bpp
Аудио: AC3 / 5.1 / 48 kHz / 448 kbps / 16 bit

General
Complete name : D:\Users\_KaisiK_\uTorrent\КИНО\Rampage.Capital.Punishment.avi
Format : AVI
Format/Info : Audio Video Interleave
File size : 1.33 GiB
Duration : 1h 32mn
Overall bit rate : 2 056 Kbps

Video
ID : 0
Format : MPEG-4 Visual
Format profile : Simple@L5
Format settings, BVOP : No
Format settings, QPel : No
Format settings, GMC : No warppoints
Format settings, Matrix : Default (H.263)
Codec ID : XVID
Codec ID/Hint : XviD
Duration : 1h 32mn
Bit rate : 1 599 Kbps
Width : 720 pixels
Height : 402 pixels
Display aspect ratio : 16:9
Frame rate : 23.976 fps
Color space : YUV
Chroma subsampling : 4:2:0
Bit depth : 8 bits
Scan type : Progressive
Compression mode : Lossy
Bits/(Pixel*Frame) : 0.230
Stream size : 1.04 GiB (78%)
Writing library : Lavc55.61.100

Audio
ID : 1
Format : AC-3
Format/Info : Audio Coding 3
Mode extension : CM (complete main)
Codec ID : 2000
Duration : 1h 32mn
Source duration : 1h 32mn
Bit rate mode : Constant
Bit rate : 448 Kbps
Channel(s) : 6 channels
Channel positions : Front: L C R, Side: L R, LFE
Sampling rate : 48.0 KHz
Bit depth : 16 bits
Compression mode : Lossy
Stream size : 298 MiB (22%)
Alignment : Aligned on interleaves
Interleave, duration : 42 ms (1.00 video frame)

[/code]
piratbit.pw



Скачать Ярость: Смертная казнь через торрент http://i4.imageban.ru/out/2014/10/08/331e597b847d1755a9ca50c7bcc8ce23.jpg Скачать фильм Ярость: Смертная казнь через торрент бесплантно в хорошем качестве Описание: Билл Уильямсон наносит новый удар. Спустя два года он берет в заложники персонал телеканала с целью воплотить еще один гениальный ... 9.5 10 25
Торрент: Зарегистрирован [2014-10-07 22:33] · скачан: 1 051 раз
Статус: T временная
Размер: 1.33 GB
Как cкачать? Как скачать Ярость: Смертная казнь через торрент | UTorrent

% Раздел Тема Автор DL S | L
T Фильмы [HD 720p, 1080p] (Звук Cam, VO, DVO) [ 4.8 GB ] Ярость: Смертная казнь / Rampage: Capital Punishment [2014 BDRip 720p Любительский [Александр Харченко] Ворон Скачать
1 | 0


Последний раз редактировалось: _KaisiK_ (2014-12-11 15:50), всего редактировалось 2 раз(а)

28-11-2019 20:33  

Отключить всю рекламу на сайте

08-10-2014 06:40 Ярость: Смертная казнь Скачать торрент  

Уве Болл...этим все сказано..piratbit.pw



08-10-2014 10:17 Ярость: Смертная казнь Скачать торрент  

Кто смотрел ? напишите стоит тратить время или нет ?piratbit.pw



08-10-2014 16:51 Ярость: Смертная казнь Скачать торрент  

первая часть была веселая, надеюсь и эта так же!!!!piratbit.pw



09-10-2014 14:33 Ярость: Смертная казнь Скачать торрент  

уве болл говна не снимает. имхо фильм бомбаpiratbit.pw



19-10-2014 14:17 Ярость: Смертная казнь Скачать торрент  

Офигенный фильм! Уве Болл считается худшим режиссёром. Скажу, что не видел до этого ни одного его фильма, хоть и наслышан о его "дерьмовости", не защищаю его в целом, но защищаю фильм. Я нашёл иголку в стоге сена и я рад.piratbit.pw



    Дорогой пользователь! Огромная просьба, поблагодарите релизера, оцените раздачу и оставьте свои комментарий, если Вы скачали Ярость: Смертная казнь через торрент бесплатно! Внесите свою лепту в развитие PiratBit!
    Комментировать посты могут только пользователи прошедшие не сложную регистрацию
    Показать сообщения:    

    Ярость: Смертная казнь через торрент
    Скачать бесплатно Ярость: Смертная казнь
    Ярость: Смертная казнь скачать торрент
    Ярость: Смертная казнь смотреть онлайн
    Cкачать фильм Ярость: Смертная казнь бесплатно
    Ярость: Смертная казнь скачать торрент в хорошем качестве
    Ярость: Смертная казнь смотреть онлайн бесплатно в хорошем качестве


    Вы не можете начинать темы
    Вы не можете отвечать на сообщения
    Вы не можете редактировать свои сообщения
    Вы не можете удалять свои сообщения
    Вы не можете голосовать в опросах
    Вы не можете прикреплять файлы к сообщениям
    Вы можете скачивать файлы