Ссылка на приватное зеркало нашего сайта всего за 1$. Внимание количество ограничено!!!

2 сезон

iTunes

1 сезон

1

iTunes

iTunes

iTunes

1 сезон

RePack

30

ИГРА 18+

pack

ВАЖНО

!!Акция!!

Alien_RageХит недели

RePack

MK11
pack

Забери бонус

RePack

jed

!!Акция!!

Alien_Rage

RePack

fifa19

RePack

Assassins Creed: Odyssey

RePack

NEED FOR SPEED™ PAYBACK

4 сезон

9 сезон

Бесстыжие 9 сезон

Все сериалы

все сериалы на PB.wtf

RePack

FAR CRY 5
  

Москва – Лопушки (Юрий Морозов) [2014, мелодрама, комедия, HDTVRip, Оригинальный] piratbit.pw

Москва – Лопушки через торрент piratbit.pw

Размер: 1.36 GB | Добавлен: 6 лет назад | Торрент скачан:2050 раз
Скачать  

05-10-2014 17:50 Москва – Лопушки Скачать торрент  

Москва – Лопушки


Год выпуска: 2014
Страна: Россия
Жанр:мелодрама, комедия
Продолжительность:01:28:42
Перевод:Оригинальный
Режиссер:Юрий Морозов

  • В ролях:

    Настя Задорожная, Алла Юганова, Виталий Альшанский, Елена Мольченко, Дмитрий Наумов (Никита), Алина Бабак (Светка), Мария Кунах (Люська), Эрик Дик, Женя Хомжукова

  • Описание:
    Две сестры - две полные противоположности. Полина - городская «фифа», работающая в крупном книжном издательстве. Маша - деревенская простушка, которая целыми днями возится в огороде, готовя на продажу заезжающим коммерсантам фермерские продукты. Жених Полины - ее босс, видный бизнесмен. Ухажер Маши - Вася, работяга и рубаха-парень.
    Все меняется в одночасье, когда в издательство к Полине заявляется жена ее босса, с которой он все как-то забывал развестись, и разом лишает Полину и жениха, и работы. Машина тихая жизнь в Лопушках круто переворачивается, когда скупщики продуктов ставят деревенским условие: либо селяне вдвое снижают цены, либо у них вообще не будут ничего покупать.
    Маша и Полина меняются местами: Полина мчится в деревню зализывать любовные раны, Маша рвется в Москву самостоятельно налаживать поставку продукции в город, чтобы не прогореть на процентах от посредников.
    Попадая в совершенно новые условия, каждая из девушек имеет возможность по-новому взглянуть на свою жизнь и проявить себя. У рафинированной Полины на деревенской почве открывается второе дыхание, она строит планы по реконструкции старинной усадьбы и налаживает эко-туризм в Лопушки. Да и Маша оказывается не лыком шита: со свойственной ей хозяйственностью и практической хваткой она выбивает павильон для лопушковской продукции на московском рынке.
    Но история, на самом деле, вовсе не о бизнесе. А о том, как две молодые девушки через смех и слезы находят не только свое призвание в жизни, но и настоящую любовь, которая явится, как всегда, неожиданно и расставит все по своим местам.


    Качество: HDTVRip
    Формат:AVI
    Видео кодек: XviD
    Аудио кодек:AC3
    Видео: XviD, 720x400 (16:9), 1995 kbps, 25 fps, 0,277 bpp
    Аудио: AC3 / 2.0 / 48 kHz / 192 kbps / 16 bit


    Код:

    General
    Complete name                            : D:\Торенты\Moskva-Lopushki.2014.HDTVRip.Files-x.avi
    Format                                   : AVI
    Format/Info                              : Audio Video Interleave
    File size                                : 1.36 GiB
    Duration                                 : 1h 28mn
    Overall bit rate                         : 2 197 Kbps
    Writing application                      : VirtualDubMod 1.5.10.3 | www.virtualdub-fr.org || (build 2550/release)
    Writing library                          : VirtualDubMod build 2550/release

    Video
    ID                                       : 0
    Format                                   : MPEG-4 Visual
    Format profile                           : Advanced Simple@L5
    Format settings, BVOP                    : 1
    Format settings, QPel                    : No
    Format settings, GMC                     : No warppoints
    Format settings, Matrix                  : Custom
    Codec ID                                 : XVID
    Codec ID/Hint                            : XviD
    Duration                                 : 1h 28mn
    Bit rate                                 : 1 995 Kbps
    Width                                    : 720 pixels
    Height                                   : 400 pixels
    Display aspect ratio                     : 16:9
    Frame rate                               : 25.000 fps
    Color space                              : YUV
    Chroma subsampling                       : 4:2:0
    Bit depth                                : 8 bits
    Scan type                                : Progressive
    Compression mode                         : Lossy
    Bits/(Pixel*Frame)                       : 0.277
    Stream size                              : 1.24 GiB (91%)
    Writing library                          : XviD 73

    Audio
    ID                                       : 1
    Format                                   : AC-3
    Format/Info                              : Audio Coding 3
    Mode extension                           : CM (complete main)
    Codec ID                                 : 2000
    Duration                                 : 1h 28mn
    Bit rate mode                            : Constant
    Bit rate                                 : 192 Kbps
    Channel(s)                               : 2 channels
    Channel positions                        : Front: L R
    Sampling rate                            : 48.0 KHz
    Bit depth                                : 16 bits
    Compression mode                         : Lossy
    Stream size                              : 122 MiB (9%)
    Alignment                                : Split accross interleaves
    Interleave, duration                     : 40 ms (1.00 video frame)
    Interleave, preload duration             : 500 ms

    Скриншоты:

    Каталог Новинок (Фильмы-трейлеры, Игры, Сериалы, Мультфильмы)


    © Оформление by Ravenpiratbit.pw



  • Скачать Москва – Лопушки через торрент http://pic.kartinco.top/images/6/stazu.jpg Скачать фильм Москва – Лопушки через торрент бесплантно в хорошем качестве Описание:Две сестры - две полные противоположности. Полина - городская «фифа», работающая в крупном книжном издательстве. Маша - ... 9.3 10 41
    Торрент: Зарегистрирован [2014-10-05 17:50] · скачан: 2 050 раз
    Статус: √ проверено
    Размер: 1.36 GB
    Как cкачать? Как скачать Москва – Лопушки через торрент | qTorrent

    % Раздел Тема Автор DL S | L
    Наши фильмы (HD, WEB-DL 720p, 1080p) [ 1.36 GB ] Москва – Лопушки [2014 WEB-DLRip 720p] [Русский] smaster Скачать
    1 | 0

    28-11-2019 20:33  

    Отключить всю рекламу на сайте

    15-10-2014 09:05 Москва – Лопушки Скачать торрент  

    Очередное УГpiratbit.pw



      Дорогой пользователь! Огромная просьба, поблагодарите релизера, оцените раздачу и оставьте свои комментарий, если Вы скачали Москва – Лопушки через торрент бесплатно! Внесите свою лепту в развитие PiratBit!
      Комментировать посты могут только пользователи прошедшие не сложную регистрацию
      Показать сообщения:    

      Москва – Лопушки через торрент
      Скачать бесплатно Москва – Лопушки
      Москва – Лопушки скачать торрент
      Москва – Лопушки смотреть онлайн
      Cкачать фильм Москва – Лопушки бесплатно
      Москва – Лопушки скачать торрент в хорошем качестве
      Москва – Лопушки смотреть онлайн бесплатно в хорошем качестве


      Вы не можете начинать темы
      Вы не можете отвечать на сообщения
      Вы не можете редактировать свои сообщения
      Вы не можете удалять свои сообщения
      Вы не можете голосовать в опросах
      Вы не можете прикреплять файлы к сообщениям
      Вы можете скачивать файлы