Ссылка на приватное зеркало нашего сайта всего за 1$. Внимание количество ограничено!!!

2 сезон

iTunes

1 сезон

1

iTunes

iTunes

iTunes

1 сезон

RePack

30

ИГРА 18+

pack

ВАЖНО

!!Акция!!

Alien_RageХит недели

RePack

MK11
pack

Забери бонус

RePack

jed

!!Акция!!

Alien_Rage

RePack

fifa19

RePack

Assassins Creed: Odyssey

RePack

NEED FOR SPEED™ PAYBACK

4 сезон

9 сезон

Бесстыжие 9 сезон

Все сериалы

все сериалы на PB.wtf

RePack

FAR CRY 5
  

Весёлые ребята;) (Алексей Бобров) [2014, комедия, DVDRip, Оригинальный] [лицензия] piratbit.pw

Весёлые ребята;) через торрент piratbit.pw

Размер: 1.46 GB | Добавлен: 6 лет назад | Торрент скачан:1066 раз
Скачать  

05-10-2014 17:45 Весёлые ребята;) Скачать торрент  

Весёлые ребята;)


Год выпуска: 2014
Страна: Россия
Жанр:комедия
Продолжительность:01:28:28
Перевод:Оригинальный
Режиссер:Алексей Бобров

  • В ролях:

    Иван Дорн (Костя Потехин), Катерина Шпица (Аня), София Каштанова (Вера), Алексей Шевченков (Дэн), Евгений Тихомиров (Миша), Ола Кейру (Толик), Сергей Газаров (Виктор Купцов), Татьяна Лютаева (Римма Купцова), Алена Новицкая (Лера Купцова), Наталья Щукина (Нина Сергеевна), Андрей Рапопорт (Стас Михайлович), Дмитрий Власкин (Рифф)

  • Описание:
    Начинающий музыкант Костя Потехин, чтобы завоевать расположение красивой девушки, соглашается участвовать в музыкальном телевизионном конкурсе. Но участвовать нужно только со своей музыкальной группой, которой у него нет. За несколько дней ему предстоит собрать свою группу, найти надежных друзей и встретить настоящую любовь.

  • Мировая премьера:28 августа 2014

    Качество: DVDRip
    Формат:AVI
    Видео кодек: XviD
    Аудио кодек:AC3
    Видео: XviD, 720x304 (2.35:1), 1906 kbps, 25 fps, 0,348 bpp
    Аудио: AC3 / 5.1 / 48 kHz / 448 kbps / 16 bit


    Код:

    General
    Complete name                            : D:\Торенты\Veselyie.rebyata . 2014.O.DVDRip.1400MB.avi
    Format                                   : AVI
    Format/Info                              : Audio Video Interleave
    File size                                : 1.46 GiB
    Duration                                 : 1h 28mn
    Overall bit rate                         : 2 365 Kbps
    Writing application                      : VirtualDubMod 1.5.10.3 | www.virtualdub-fr.org || (build 2550/release)
    Writing library                          : VirtualDubMod build 2550/release

    Video
    ID                                       : 0
    Format                                   : MPEG-4 Visual
    Format profile                           : Advanced Simple@L5
    Format settings, BVOP                    : 2
    Format settings, QPel                    : No
    Format settings, GMC                     : No warppoints
    Format settings, Matrix                  : Default (MPEG)
    Codec ID                                 : XVID
    Codec ID/Hint                            : XviD
    Duration                                 : 1h 28mn
    Bit rate                                 : 1 907 Kbps
    Width                                    : 720 pixels
    Height                                   : 304 pixels
    Display aspect ratio                     : 2.35:1
    Frame rate                               : 25.000 fps
    Color space                              : YUV
    Chroma subsampling                       : 4:2:0
    Bit depth                                : 8 bits
    Scan type                                : Progressive
    Compression mode                         : Lossy
    Bits/(Pixel*Frame)                       : 0.348
    Stream size                              : 1.18 GiB (81%)
    Writing library                          : XviD 1.2.1 (UTC 2008-12-04)

    Audio
    ID                                       : 1
    Format                                   : AC-3
    Format/Info                              : Audio Coding 3
    Mode extension                           : CM (complete main)
    Codec ID                                 : 2000
    Duration                                 : 1h 28mn
    Bit rate mode                            : Constant
    Bit rate                                 : 448 Kbps
    Channel(s)                               : 6 channels
    Channel positions                        : Front: L C R, Side: L R, LFE
    Sampling rate                            : 48.0 KHz
    Bit depth                                : 16 bits
    Compression mode                         : Lossy
    Stream size                              : 284 MiB (19%)
    Alignment                                : Split accross interleaves
    Interleave, duration                     : 40 ms (1.00 video frame)
    Interleave, preload duration             : 500 ms

    Скриншоты:

    Каталог Новинок (Фильмы-трейлеры, Игры, Сериалы, Мультфильмы)


    © Оформление by Ravenpiratbit.pw



  • Скачать Весёлые ребята;) через торрент http://pic.kartinco.top/images/6/stazu.jpg Скачать фильм Весёлые ребята;) через торрент бесплантно в хорошем качестве Описание:Начинающий музыкант Костя Потехин, чтобы завоевать расположение красивой девушки, соглашается участвовать в музыкальном ... 8 10 22
    Торрент: Зарегистрирован [2014-10-05 17:45] · скачан: 1 066 раз
    Статус: √ проверено
    Размер: 1.46 GB
    Как cкачать? Как скачать Весёлые ребята;) через торрент | qTorrent

    % Раздел Тема Автор DL S | L
    Наши новые фильмы 2014 [ 741 MB ] Весёлые ребята;) [2014 WEB-DLRip-AVC] bober100 Скачать
    1 | 0
    Отечественная Поп музыка (lossless) [ 378 MB ] Веселые Ребята - Как прекрасен этот мир - 2013/ FLAC/ image+.cue/ lossless/ Pop sergej644 Скачать
    1 | 0
    Классика зарубежного кино [ 1.45 GB ] Веселые ребята / The Sunshine Boys [1975 HDRip] MVO koenig Скачать
    1 | 0
    Отечественная Поп музыка (mp3) [ 186 MB ] Весёлые ребята - Звёздная Серия 2000 / MP3 / 320 kbps / Советская эстрада Retro megatoxa Скачать
    1 | 0
    Наши фильмы (DVD фильмы) [ 4.11 GB ] Весёлые ребята [2014 DVD5] R5 voovaz Скачать
    1 | 0
    Отечественная Поп музыка (mp3) [ 191 MB ] Весёлые ребята - Ретроспектива 2014 / MP3 / 320 kbps / Pop megatoxa Скачать
    1 | 0
    Отечественная Поп музыка (lossless) [ 484 MB ] Веселые Ребята - Не волнуйтесь тетя - 2013/ FLAC/ image+.cue/ lossless/ Pop sergej644 Скачать
    1 | 0

    28-11-2019 20:33  

    Отключить всю рекламу на сайте

      Дорогой пользователь! Огромная просьба, поблагодарите релизера, оцените раздачу и оставьте свои комментарий, если Вы скачали Весёлые ребята;) через торрент бесплатно! Внесите свою лепту в развитие PiratBit!
      Комментировать посты могут только пользователи прошедшие не сложную регистрацию
      Показать сообщения:    

      Весёлые ребята;) через торрент
      Скачать бесплатно Весёлые ребята;)
      Весёлые ребята;) скачать торрент
      Весёлые ребята;) смотреть онлайн
      Cкачать фильм Весёлые ребята;) бесплатно
      Весёлые ребята;) скачать торрент в хорошем качестве
      Весёлые ребята;) смотреть онлайн бесплатно в хорошем качестве


      Вы не можете начинать темы
      Вы не можете отвечать на сообщения
      Вы не можете редактировать свои сообщения
      Вы не можете удалять свои сообщения
      Вы не можете голосовать в опросах
      Вы не можете прикреплять файлы к сообщениям
      Вы можете скачивать файлы